img image001 image001 image001 image001 image001 image001 image001 image001 image001 image001 image001 image001 image001 image001 image001

Planets Sun Sun Sun
Статистика раздачи
Автор: Снежана | Размер: 1.46 ГБ | Добавлен: 27 июл 2013
Раздают: 0    Качают: 3
Скачать торрент
Скачать торрент
Описание торрента

СообщениеДобавлено: 27 июл 2013 

#77

Название на русском: Малыш Торкель / Теркель в беде
Название в оригинале: Terkel I Knibe

Страна: Дания
Жанр: Анимация, комедия
Год выпуска: 2004
Продолжительность: 01:17:08
Перевод: Авторский (одноголосый закадровый) Антон Карповский
Субтитры: Английские, Датские

Режиссёр: Крестен Вестбйерг Андерсен /Kresten Vestbjerg Andersen, Торбйорн Кристофферсен /Thorbjørn Christoffersen
В ролях: Эдриен Эдмондсон /Adrian Edmondson, Билл Бэйли /Bill Bailey, Тоби Стивенс /Toby Stephens, Оливия Колман /Olivia Colman, Джонни Вегас /Johnny Vegas, Бен Бишоп /Ben Bishop

Описание фильма:
Главный герой фильма — обыкновенный подросток Теркель, с брекетами на зубах и своими заморочками в голове, он воспитывается в довольно странной семье — его мама не выпускает сигарету изо рта, а папа — все время читает газету и произносит только слово «Нет!», а младшая сестра Фиона — очень нервная и склонная к травматизму девочка...



Качество: DVDRip-AVC
Формат: MKV
Видео: MPEG4 Video (H264) 720x408 25.00fps 2514 kbps
Аудио: Dolby AC3 48.0KHz stereo 192Kbps

Внимание! Фильм изобилует сценами жестокости и насилия, "взрослым обязательно присутствие детей"













Format : Matroska
Format version : Version 2
File size : 1.46 GiB
Duration : 1h 17mn
Overall bit rate : 2 705 Kbps
Encoded date : UTC 2010-12-17 20:19:29
Writing application : mkvmerge v3.3.0 ('Language') built on Mar 24 2010 14:59:24
Writing library : libebml v0.8.0 + libmatroska v0.9.0

Video
ID : 1
Format : AVC
Format/Info : Advanced Video Codec
Format profile : High@L4.1
Format settings, CABAC : Yes
Format settings, ReFrames : 11 frames
Codec ID : V_MPEG4/ISO/AVC
Duration : 1h 17mn
Bit rate : 2 514 Kbps
Width : 720 pixels
Height : 408 pixels
Display aspect ratio : 16:9
Frame rate : 25.000 fps
Color space : YUV
Chroma subsampling : 4:2:0
Bit depth : 8 bits
Scan type : Progressive
Bits/(Pixel*Frame) : 0.342
Stream size : 1.33 GiB (91%)
Writing library : x264 core 92 r1510 33d382a
Encoding settings : cabac=1 / ref=11 / deblock=1:-2:-1 / analyse=0x3:0x133 / me=umh / subme=10 / psy=1 / psy_rd=1.00:0.20 / mixed_ref=1 / me_range=24 / chroma_me=1 / trellis=2 / 8x8dct=1 / cqm=0 / deadzone=21,11 / fast_pskip=1 / chroma_qp_offset=-3 / threads=3 / sliced_threads=0 / nr=0 / decimate=1 / interlaced=0 / constrained_intra=0 / bframes=4 / b_pyramid=2 / b_adapt=2 / b_bias=0 / direct=3 / wpredb=1 / wpredp=2 / keyint=250 / keyint_min=25 / scenecut=40 / intra_refresh=0 / rc_lookahead=60 / rc=2pass / mbtree=1 / bitrate=2514 / ratetol=1.0 / qcomp=0.60 / qpmin=10 / qpmax=51 / qpstep=4 / cplxblur=20.0 / qblur=0.5 / ip_ratio=1.40 / aq=1:1.00
Language : Russian

Audio
ID : 2
Format : AC-3
Format/Info : Audio Coding 3
Mode extension : CM (complete main)
Codec ID : A_AC3
Duration : 1h 17mn
Bit rate mode : Constant
Bit rate : 192 Kbps
Channel(s) : 2 channels
Channel positions : Front: L R
Sampling rate : 48.0 KHz
Bit depth : 16 bits
Compression mode : Lossy
Stream size : 106 MiB (7%)
Title : Антон Карповский
Language : Russian

Text #1
ID : 3
Format : UTF-8
Codec ID : S_TEXT/UTF8
Codec ID/Info : UTF-8 Plain Text
Title : Английские субтитры
Language : English

Text #2
ID : 4
Format : UTF-8
Codec ID : S_TEXT/UTF8
Codec ID/Info : UTF-8 Plain Text
Title : Датские субтитры
Language : Danish

Релиз от: kro44i



   Похожие торренты   Торрент   Размер 
В этой теме нет новых непрочитанных сообщений. Теркель и Халепа / Terkel i Knibe (2004) DVDRip

6 | 3

1.34 ГБ

В этой теме нет новых непрочитанных сообщений. Театр ужаса Хино Хидеси: Мой малыш / The Horror Manga of Hino Hideshi. Lizard Baby (2004) DVDRip

0 | 2

742.24 МБ

В этой теме нет новых непрочитанных сообщений. Малыш и я / A-gi-wa Na (2008) DVDRip

15 | 3

1.36 ГБ

В этой теме нет новых непрочитанных сообщений. Малыш / The Kid (2000) DVDRip

13 | 13

616.88 МБ

В этой теме нет новых непрочитанных сообщений. Малыш / Baby Boy (2001) DVDRip-AVC | A

61 | 28

2.99 ГБ

В этой теме нет новых непрочитанных сообщений. Малыш Рут / Babe, The (1992) DVDRip

0 | 10

1.36 ГБ

В этой теме нет новых непрочитанных сообщений. Малыш / The Kid (2000) DVDRip от Alekxandr48

121 | 3

1.37 ГБ




Вы не можете начинать темы
Вы не можете отвечать на сообщения
Вы не можете редактировать свои сообщения
Вы не можете удалять свои сообщения
Вы не можете добавлять вложения

Перейти:  
Для Мосгорсуда, Роскомнадзора и рекламодателей: mosgorsud-torrent[собачка]yandex.ru
 Вход
ppkBB3cker v.2 © 2008-2014 @ PPK
[ Time : 0.031s | 16 Queries | GZIP : Off ]

Торрент трекер RUTOR.IN, Не можете зайти на rutor.org? Какой новый адрес рутор? Какое зеркало рутор? Не работает rutor.org и зеркала? Тогда наш торрент специально для вас. Rutor.in неофициальное зеркало rutor. В случае если у Вас заблокирован rutor или вдруг Вы не можете на него зайти, то Вы без труда сможете скачать бесплатно и без рекламы последние новинки кино, игр, сериалов и прочего у нас, на Rutor.in. Не нужно использовать прокси, чтобы зайти на рутор, достаточно воспользоваться нашим ресурсом. Все новые фильмы, игры, сериалы, книги и музыка за 2013 и 2014 годы через торрент бесплатно. Скачивайте фильмы в хорошем качестве, игры для пк, xbox, playstation без регистрации. У нас вы найдете новые Зарубежные сериалы и Русские сериалы 2013, 2014, 2015 годов. Оставайтесь с нами, качайте любимые фильмы, игры, сериалы, книги и музыку.
cron