img image001 image001 image001 image001 image001 image001 image001 image001 image001 image001 image001 image001 image001 image001 image001

Planets Sun Sun Sun
Статистика раздачи
Автор: Снежана | Размер: 4.98 ГБ | Добавлен: 27 июл 2013
Раздают: 169    Качают: 13
Скачать торрент
Скачать торрент
Описание торрента

СообщениеДобавлено: 27 июл 2013 

#77

Страна: Дания
Жанр: мультфильм, фэнтези, приключения
Продолжительность: 01:29:18
Год выпуска: 2011
Перевод 1: Профессиональный (дублированный)
Перевод 2: Профессиональный (многоголосый закадровый) 2х2
Русские субтитры: нет
Режиссёр: Крестен Вестбьерг Андерсен, Торбьорн Кристофферсен

Роли озвучивали: Бриджитт Нильсен, Ларс Миккельсен, Луис Ломбарди, Ди Снайдер, Бен Бледсо, Пирс Крейвенс, Лерке Винтер Андерсен, Ларс Бом, Пребен Кристенсен, Оле Эрнст

Описание: Ронал — самый нетипичный варвар на Земле. Его не интересуют ни битвы, ни завоевания, ни пиры. Больше всего на свете ему хочется, чтобы все просто оставили его в покое. Но судьба распоряжается иначе. Однажды злобный принц Вольказар, вождь враждебного племени, захватывает всех варваров в плен, чтобы принести их в жертву древним богам и обрести власть над миром. На свободе остается лишь Ронал. И теперь ему вместе с безалаберным бардом Алибером, мускулистой девой-воительницей Зандрой и эльфом-метросексуалом Эльриком предстоит пройти множество испытаний, чтобы освободить свой народ, обрести веру в себя и… найти любовь.

Качество: BDRip 1080p
Формат: MKV
Видео: AVC, 1920x808 (2.35:1), 23.976 fps, 5 495 Kbps (0.148 bit/pixel)
Аудио 1: DTS, 48.0 KHz, 6 ch, 755 Kbps, CBR (Русский дубляж)
Аудио 2: AC-3, 48.0 KHz, 6 ch, 256 Kbps, CBR (Русский MVO 2x2)
Аудио 3: DTS, 48.0 KHz, 6 ch, 1 510 Kbps, CBR (Датский)
Субтитры: отсутствуют
D:MoviesCartoonsRonal.varvar.2011.BDRip.1080p.mkv
General
Unique ID : 181580480649278866421922429099236183430 (0x889B20E55E07AE5CA386E1D34528CD86)
Complete name : D:MoviesCartoonsRonal.varvar.2011.BDRip.1080p.mkv
Format : Matroska
Format version : Version 2
File size : 4.98 GiB
Duration : 1h 29mn
Overall bit rate : 7 985 Kbps
Encoded date : UTC 2012-02-03 20:00:46
Writing application : mkvmerge v4.3.0 ('Escape from the Island') сборка от Sep 5 2010 10:30:51
Writing library : libebml v1.0.0 + libmatroska v1.0.0
Video #1
ID : 1
Format : AVC
Format/Info : Advanced Video Codec
Format profile : High@L4.0
Format settings, CABAC : Yes
Format settings, ReFrames : 5 frames
Codec ID : V_MPEG4/ISO/AVC
Duration : 1h 29mn
Bit rate : 5 495 Kbps
Width : 1 920 pixels
Height : 808 pixels
Display aspect ratio : 2.40:1
Frame rate : 23.976 fps
Color space : YUV
Chroma subsampling : 4:2:0
Bit depth : 8 bits
Scan type : Progressive
Bits/(Pixel*Frame) : 0.148
Stream size : 3.31 GiB (66%)
Writing library : x264 core 120 r2146 bcd41db
Encoding settings : cabac=1 / ref=5 / deblock=1:0:0 / analyse=0x3:0x133 / me=umh / subme=7 / psy=1 / psy_rd=1.00:0.00 / mixed_ref=1 / me_range=16 / chroma_me=1 / trellis=1 / 8x8dct=1 / cqm=0 / deadzone=21,11 / fast_pskip=0 / chroma_qp_offset=-2 / threads=12 / sliced_threads=0 / nr=0 / decimate=1 / interlaced=0 / bluray_compat=0 / constrained_intra=0 / bframes=3 / b_pyramid=2 / b_adapt=2 / b_bias=0 / direct=3 / weightb=1 / open_gop=0 / weightp=2 / keyint=250 / keyint_min=23 / scenecut=40 / intra_refresh=0 / rc_lookahead=50 / rc=2pass / mbtree=1 / bitrate=5495 / ratetol=1.0 / qcomp=0.60 / qpmin=0 / qpmax=69 / qpstep=4 / cplxblur=20.0 / qblur=0.5 / ip_ratio=1.40 / aq=1:1.00
Language : English
Default : Yes
Forced : No
Audio #2
ID : 2
Format : DTS
Format/Info : Digital Theater Systems
Codec ID : A_DTS
Duration : 1h 29mn
Bit rate mode : Constant
Bit rate : 755 Kbps
Channel(s) : 6 channels
Channel positions : Front: L C R, Side: L R, LFE
Sampling rate : 48.0 KHz
Bit depth : 16 bits
Compression mode : Lossy
Delay relative to video : 40ms
Stream size : 482 MiB (9%)
Title : DUB R5
Language : Russian
Default : Yes
Forced : No
Audio #3
ID : 3
Format : AC-3
Format/Info : Audio Coding 3
Mode extension : CM (complete main)
Codec ID : A_AC3
Duration : 1h 29mn
Bit rate mode : Constant
Bit rate : 256 Kbps
Channel(s) : 6 channels
Channel positions : Front: L C R, Side: L R, LFE
Sampling rate : 48.0 KHz
Bit depth : 16 bits
Compression mode : Lossy
Delay relative to video : 40ms
Stream size : 164 MiB (3%)
Title : 2x2 (MVO)
Language : Russian
Default : No
Forced : No
Audio #4
ID : 4
Format : DTS
Format/Info : Digital Theater Systems
Codec ID : A_DTS
Duration : 1h 29mn
Bit rate mode : Constant
Bit rate : 1 510 Kbps
Channel(s) : 6 channels
Channel positions : Front: L C R, Side: L R, LFE
Sampling rate : 48.0 KHz
Bit depth : 24 bits
Compression mode : Lossy
Delay relative to video : 11ms
Stream size : 964 MiB (19%)
Language : Danish
Default : No
Forced : No
Menu
00:00:00.000 : en:00:00:00.000
00:09:15.972 : en:00:09:15.972
00:15:16.791 : en:00:15:16.791
00:24:42.856 : en:00:24:42.856
00:31:34.309 : en:00:31:34.309
00:38:47.158 : en:00:38:47.158
00:47:34.351 : en:00:47:34.351
00:56:31.430 : en:00:56:31.430
01:02:02.427 : en:01:02:02.427
01:08:37.905 : en:01:08:37.905
01:16:10.900 : en:01:16:10.900
01:24:47.416 : en:01:24:47.416



   Похожие торренты   Торрент   Размер 
В этой теме нет новых непрочитанных сообщений. Ронал-варвар / Ronal Barbaren (2011) BDRip 1080p

331 | 14

2.19 ГБ

В этой теме нет новых непрочитанных сообщений. Ронал-варвар / Ronal the Barbarian / Ronal Barbaren (2011) BDRip от HQCLUB

800 | 30

1.45 ГБ

В этой теме нет новых непрочитанных сообщений. Ронал-варвар / Ronal the Barbarian / Ronal Barbaren (2011) BDRip-AVC от 0ptimus | D, P

208 | 12

1.67 ГБ

В этой теме нет новых непрочитанных сообщений. Ронал-варвар / Ronal Barbaren (2011) BDRip 1080p | Лицензия

232 | 13

3.99 ГБ

В этой теме нет новых непрочитанных сообщений. Ронал-варвар / Ronal the Barbarian / Ronal Barbaren (2011) HDRip | КПК от Generalfilm

23 | 12

293.08 МБ

В этой теме нет новых непрочитанных сообщений. Ронал-варвар / Ronal Barbaren (2011) BDRip 720p

34 | 6

1.44 ГБ

В этой теме нет новых непрочитанных сообщений. Ронал-варвар / Ronal Barbaren (2011) BDRip от HELLYWOOD

55 | 5

1.45 ГБ




Вы не можете начинать темы
Вы не можете отвечать на сообщения
Вы не можете редактировать свои сообщения
Вы не можете удалять свои сообщения
Вы не можете добавлять вложения

Перейти:  
Для Мосгорсуда, Роскомнадзора и рекламодателей: mosgorsud-torrent[собачка]yandex.ru
 Вход
ppkBB3cker v.2 © 2008-2014 @ PPK
[ Time : 0.050s | 15 Queries | GZIP : Off ]

Торрент трекер RUTOR.IN, Не можете зайти на rutor.org? Какой новый адрес рутор? Какое зеркало рутор? Не работает rutor.org и зеркала? Тогда наш торрент специально для вас. Rutor.in неофициальное зеркало rutor. В случае если у Вас заблокирован rutor или вдруг Вы не можете на него зайти, то Вы без труда сможете скачать бесплатно и без рекламы последние новинки кино, игр, сериалов и прочего у нас, на Rutor.in. Не нужно использовать прокси, чтобы зайти на рутор, достаточно воспользоваться нашим ресурсом. Все новые фильмы, игры, сериалы, книги и музыка за 2013 и 2014 годы через торрент бесплатно. Скачивайте фильмы в хорошем качестве, игры для пк, xbox, playstation без регистрации. У нас вы найдете новые Зарубежные сериалы и Русские сериалы 2013, 2014, 2015 годов. Оставайтесь с нами, качайте любимые фильмы, игры, сериалы, книги и музыку.
cron