img image001 image001 image001 image001 image001 image001 image001 image001 image001 image001 image001 image001 image001 image001 image001

Planets Sun Sun Sun
Статистика раздачи
Автор: Снежана | Размер: 2.18 ГБ | Добавлен: 27 июл 2013
Раздают: 33    Качают: 3
Скачать торрент
Скачать торрент
Описание торрента

СообщениеДобавлено: 27 июл 2013 

#77

Как приручить дракона / How to Train Your Dragon (2010) 3D BDRip 720p от NOLIMITS-TEAM | Горизонтальная стереопара


Информация о фильме
Название: Как приручить дракона
Оригинальное название: How to Train Your Dragon
Год выхода: 2010
Жанр: Мультфильм, фэнтези, комедия, приключения, семейный
Режиссер: Дин ДеБлуа, Крис Сандерс
В ролях: Джей Барушель, Джерард Батлер, Крэйг Фергюсон, Америка Феррера, Джона Хилл, Кристофер Минц-Плассе, ТиДжей Миллер, Кристен Уиг, Робин Аткин Даунс, Филип МакГрэйд

Сюжет фильма: Вы узнаете историю подростка Иккинга, которому не слишком близки традиции его героического племени, много лет ведущего войну с драконами. Мир Иккинга переворачивается с ног на голову, когда он неожиданно встречает дракона Беззубика, который поможет ему и другим викингам увидеть привычный мир с совершенно другой стороны...

Выпущено: DreamWorks Animation, Mad Hatter Entertainment, Mad Hatter Films (США)
Продолжительность: 01:37:53
Перевод: Дублированный
Субтитры: Отсутствуют

Файл

Формат 3D: Half SideBySide | Горизонтальная стереопара
Качество: BDRip 720p (исходник Blu-ray 3D Disc)
Видео: 1280x544, 2811 Кбит/сек, 23.976 кадр/сек, AVC, x264, 2.35:1, 0.168 Бит/(Пиксели*Кадры)
Аудио: AC-3, 384 Кбит/сек, 6 канала(ов), 48,0 КГц (RUS)
Чаптеры: Есть
Размер: 2.18 Гб





Релиз Группа | Автор Рипа:
Бюджет Фильма: $165 000 000
Кассовые сборы: $494 870 991 + DVD в США $120 391 829






Format : Matroska
Format version : Version 2
File size : 2.18 GiB
Duration : 1h 37mn
Overall bit rate : 3 192 Kbps
Movie name : Rip by NigAndr (NOLIMITS-TEAM.RU)
Encoded date : UTC 2012-02-03 21:46:39
Writing application : mkvmerge v5.2.1 ('A Far Off Place') built on Jan 2 2012 23:21:10
Writing library : libebml v1.2.3 + libmatroska v1.3.0

Video
ID : 1
Format : AVC
Format/Info : Advanced Video Codec
Format profile : High@L4.1
Format settings, CABAC : Yes
Format settings, ReFrames : 9 frames
Codec ID : V_MPEG4/ISO/AVC
Duration : 1h 37mn
Bit rate : 2 811 Kbps
Width : 1 280 pixels
Height : 544 pixels
Display aspect ratio : 2.35:1
Original display aspect ratio : 2.35:1
Frame rate : 23.976 fps
Color space : YUV
Chroma subsampling : 4:2:0
Bit depth : 8 bits
Scan type : Progressive
Bits/(Pixel*Frame) : 0.168
Stream size : 1.88 GiB (86%)
Title : Как приручить дракона.(2010).3D.BDRip.720p.NoLimits-Team
Writing library : x264 core 120 r2146 bcd41db
Encoding settings : cabac=1 / ref=9 / deblock=1:-3:-2 / analyse=0x3:0x133 / me=umh / subme=10 / psy=1 / psy_rd=1.00:0.15 / mixed_ref=1 / me_range=32 / chroma_me=1 / trellis=2 / 8x8dct=1 / cqm=0 / deadzone=21,11 / fast_pskip=0 / chroma_qp_offset=-3 / threads=6 / sliced_threads=0 / slices=4 / nr=0 / decimate=0 / interlaced=0 / bluray_compat=0 / constrained_intra=0 / bframes=5 / b_pyramid=2 / b_adapt=2 / b_bias=0 / direct=3 / weightb=1 / open_gop=0 / weightp=2 / keyint=240 / keyint_min=24 / scenecut=40 / intra_refresh=0 / rc_lookahead=60 / rc=2pass / mbtree=1 / bitrate=2811 / ratetol=2.0 / qcomp=0.60 / qpmin=0 / qpmax=51 / qpstep=4 / cplxblur=20.0 / qblur=0.5 / ip_ratio=1.40 / aq=2:1.00
Language : English
Default : Yes
Forced : No

Audio
ID : 2
Format : AC-3
Format/Info : Audio Coding 3
Mode extension : CM (complete main)
Codec ID : A_AC3
Duration : 1h 37mn
Bit rate mode : Constant
Bit rate : 384 Kbps
Channel(s) : 6 channels
Channel positions : Front: L C R, Side: L R, LFE
Sampling rate : 48.0 KHz
Bit depth : 16 bits
Compression mode : Lossy
Stream size : 269 MiB (12%)
Title : Дублированный
Language : Russian
Default : Yes
Forced : No

Menu
00:00:00.000 : en:00:00:00.000
00:08:38.768 : en:00:08:38.768
00:11:30.982 : en:00:11:30.982
00:15:10.034 : en:00:15:10.034
00:21:56.065 : en:00:21:56.065
00:27:40.701 : en:00:27:40.701
00:33:13.200 : en:00:33:13.200
00:39:06.135 : en:00:39:06.135
00:43:27.688 : en:00:43:27.688
00:47:07.366 : en:00:47:07.366
00:49:46.192 : en:00:49:46.192
00:59:54.800 : en:00:59:54.800
01:04:46.382 : en:01:04:46.382
01:09:27.163 : en:01:09:27.163
01:12:37.186 : en:01:12:37.186
01:23:25.042 : en:01:23:25.042
01:28:53.495 : en:01:28:53.495

Уважаемые пользователи, не нужно заказывать фильмы в комментариях. Хотите заказать релиз - воспользуйтесь Столом Заказов на самом сайте Релиз-Группы. Проводиться набор в RG NoLimits-team и RG NoLimits-team Games.



   Похожие торренты   Торрент   Размер 
В этой теме нет новых непрочитанных сообщений. Как приручить дракона / How to Train Your Dragon (2010) BDRip 1080p от NOLIMITS-TEAM | 3D-Video

29 | 4

4.37 ГБ

В этой теме нет новых непрочитанных сообщений. Как приручить дракона / How to Train Your Dragon (2010) BDRip 720p | 3D-video (Анаглиф)

33 | 3

2.75 ГБ

В этой теме нет новых непрочитанных сообщений. Как приручить дракона / How to Train Your Dragon (2010) BDRip от HQ-ViDEO

36 | 15

1.98 ГБ

В этой теме нет новых непрочитанных сообщений. Как приручить дракона / How to Train Your Dragon (2010) BDRip 1080p | 3D-Video

195 | 10

6.42 ГБ

В этой теме нет новых непрочитанных сообщений. Как приручить дракона 3Д / How to Train Your Dragon 3D (2010) BDrip 720p | Анаглиф

24 | 6

7.29 ГБ

В этой теме нет новых непрочитанных сообщений. Как приручить дракона / How to Train Your Dragon (2010) BDRip 720p от NNNB | 60 fps

687 | 42

4.21 ГБ

В этой теме нет новых непрочитанных сообщений. Как приручить дракона / How to Train Your Dragon (2010) BDRip 720p от DHT-Movies

515 | 17

2.9 ГБ




Вы не можете начинать темы
Вы не можете отвечать на сообщения
Вы не можете редактировать свои сообщения
Вы не можете удалять свои сообщения
Вы не можете добавлять вложения

Перейти:  
Для Мосгорсуда, Роскомнадзора и рекламодателей: mosgorsud-torrent[собачка]yandex.ru
 Вход
ppkBB3cker v.2 © 2008-2014 @ PPK
[ Time : 0.026s | 14 Queries | GZIP : Off ]

Торрент трекер RUTOR.IN, Не можете зайти на rutor.org? Какой новый адрес рутор? Какое зеркало рутор? Не работает rutor.org и зеркала? Тогда наш торрент специально для вас. Rutor.in неофициальное зеркало rutor. В случае если у Вас заблокирован rutor или вдруг Вы не можете на него зайти, то Вы без труда сможете скачать бесплатно и без рекламы последние новинки кино, игр, сериалов и прочего у нас, на Rutor.in. Не нужно использовать прокси, чтобы зайти на рутор, достаточно воспользоваться нашим ресурсом. Все новые фильмы, игры, сериалы, книги и музыка за 2013 и 2014 годы через торрент бесплатно. Скачивайте фильмы в хорошем качестве, игры для пк, xbox, playstation без регистрации. У нас вы найдете новые Зарубежные сериалы и Русские сериалы 2013, 2014, 2015 годов. Оставайтесь с нами, качайте любимые фильмы, игры, сериалы, книги и музыку.