img image001 image001 image001 image001 image001 image001 image001 image001 image001 image001 image001 image001 image001 image001 image001

Planets Sun Sun Sun
Статистика раздачи
Автор: Снежана | Размер: 2.19 ГБ | Добавлен: 27 июл 2013
Раздают: 331    Качают: 14
Скачать торрент
Скачать торрент
Описание торрента

СообщениеДобавлено: 27 июл 2013 

#77

Информация о фильме
Название: Ронал-варвар
Оригинальное название: Ronal Barbaren
Год выхода: 2011
Жанр: мультфильм, фэнтези, приключения
Режиссер: Крестен Вестбьерг Андерсен, Торбьорн Кристофферсен, Филип Эйнштейн Липски
В ролях: Андерс Юль, Хади Ка-Куш, Лерке Винтер Андерсен, Брайан Лукке, Ларс Миккельсен, Питер Од, Ларс Бом, Оле Теструп, Пребен Кристенсен, Оле Эрнст

О фильме: Ронал — самый нетипичный варвар на Земле. Его не интересуют ни битвы, ни завоевания, ни пиры. Больше всего на свете ему хочется, чтобы все просто оставили его в покое. Но судьба распоряжается иначе. Однажды злобный принц Вольказар, вождь враждебного племени, захватывает всех варваров в плен, чтобы принести их в жертву древним богам и обрести власть над миром. На свободе остается лишь Ронал. И теперь ему вместе с безалаберным бардом Алибером, мускулистой девой-воительницей Зандрой и эльфом-метросексуалом Эльриком предстоит пройти множество испытаний, чтобы освободить свой народ, обрести веру в себя и… найти любовь.



Выпущено: Einstein Film
Продолжительность: 01:29:19
Перевод: Дублированный (лицензия) + Многоголосый закадровый (2х2)

Файл
Кодек: x264
Качество: BDRip (источник: Blu-ray Disc)
Видео: 1920x800 (2,40:1), 23.976 fps, 2800 kbps
Аудио #1: AC-3, 6 ch, 448 kbps (Дубляж)
Аудио #2: AC-3, 6 ch, 256 kbps (Многоголосый закадровый, 2х2)
Скачать: сэмпл

Скриншоты

Общее
Уникальный идентификатор : 237847052335503659836535902610697522702 (0xB2EFAD10270DF2F1A91A21B670448E0E)
Полное имя : Ronal.Barbaren.2011.BDRip.1080p.Rus.mkv
Формат : Matroska
Версия формата : Version 2
Размер файла : 2,19 Гбайт
Продолжительность : 1 ч. 29 м.
Общий поток : 3505 Кбит/сек
Название фильма : Ронал-варвар / Ronal Barbaren (2011)
Дата кодирования : UTC 2012-02-07 15:22:04
Программа кодирования : mkvmerge v4.0.0 ('The Stars were mine') сборка от Jun 6 2010 16:18:42
Библиотека кодирования : libebml v1.0.0 + libmatroska v1.0.0

Видео
Идентификатор : 1
Формат : AVC
Формат/Информация : Advanced Video Codec
Профиль формата : High@L4.1
Параметр CABAC формата : Да
Параметр ReFrames формата : 5 кадров
Идентификатор кодека : V_MPEG4/ISO/AVC
Продолжительность : 1 ч. 29 м.
Битрейт : 2800 Кбит/сек
Ширина : 1920 пикселей
Высота : 800 пикселей
Соотношение сторон : 2,40:1
Частота кадров : 23,976 кадра/сек
Цветовое пространство : YUV
Субдискретизация насыщенности : 4:2:0
Битовая глубина : 8 бит
Тип развёртки : Прогрессивная
Бит/(Пиксели*Кадры) : 0.076
Размер потока : 1,70 Гбайт (78%)
Заголовок : Release by AlexKa
Библиотека кодирования : x264 core 120 r2164 da19765
Настройки программы : cabac=1 / ref=5 / deblock=1:0:0 / analyse=0x3:0x133 / me=umh / subme=10 / psy=1 / psy_rd=1.00:0.00 / mixed_ref=1 / me_range=32 / chroma_me=1 / trellis=2 / 8x8dct=1 / cqm=0 / deadzone=21,11 / fast_pskip=0 / chroma_qp_offset=-2 / threads=12 / sliced_threads=0 / nr=0 / decimate=0 / interlaced=0 / bluray_compat=0 / constrained_intra=0 / bframes=5 / b_pyramid=2 / b_adapt=2 / b_bias=0 / direct=3 / weightb=1 / open_gop=0 / weightp=2 / keyint=240 / keyint_min=24 / scenecut=40 / intra_refresh=0 / rc_lookahead=60 / rc=2pass / mbtree=1 / bitrate=2800 / ratetol=1.0 / qcomp=0.60 / qpmin=0 / qpmax=69 / qpstep=4 / cplxblur=20.0 / qblur=0.5 / ip_ratio=1.40 / aq=1:1.00
Язык : Danish

Аудио #1
Идентификатор : 2
Формат : AC-3
Формат/Информация : Audio Coding 3
Расширение режима : CM (complete main)
Идентификатор кодека : A_AC3
Продолжительность : 1 ч. 29 м.
Вид битрейта : Постоянный
Битрейт : 448 Кбит/сек
Каналы : 6 каналов
Расположение каналов : Front: L C R, Side: L R, LFE
Частота : 48,0 КГц
Битовая глубина : 16 бит
Метод сжатия : С потерями
Размер потока : 286 Мбайт (13%)
Заголовок : Дубляж
Язык : Russian

Аудио #2
Идентификатор : 3
Формат : AC-3
Формат/Информация : Audio Coding 3
Расширение режима : CM (complete main)
Идентификатор кодека : A_AC3
Продолжительность : 1 ч. 29 м.
Вид битрейта : Постоянный
Битрейт : 256 Кбит/сек
Каналы : 6 каналов
Расположение каналов : Front: L C R, Side: L R, LFE
Частота : 48,0 КГц
Битовая глубина : 16 бит
Метод сжатия : С потерями
Размер потока : 164 Мбайт (7%)
Заголовок : Многоголосый, 2х2
Язык : Russian

Меню
00:00:00.000 : :Chapter 01
00:09:15.972 : :Chapter 02
00:15:16.790 : :Chapter 03
00:24:42.856 : :Chapter 04
00:31:34.309 : :Chapter 05
00:38:47.158 : :Chapter 06
00:47:34.351 : :Chapter 07
00:56:31.429 : :Chapter 08
01:02:02.427 : :Chapter 09
01:08:37.905 : :Chapter 10
01:16:10.899 : :Chapter 11
01:24:47.415 : :Chapter 12



   Похожие торренты   Торрент   Размер 
В этой теме нет новых непрочитанных сообщений. Ронал-варвар / Ronal Barbaren (2011) BDRip 1080p

169 | 13

4.98 ГБ

В этой теме нет новых непрочитанных сообщений. Ронал-варвар / Ronal the Barbarian / Ronal Barbaren (2011) BDRip от HQCLUB

800 | 30

1.45 ГБ

В этой теме нет новых непрочитанных сообщений. Ронал-варвар / Ronal the Barbarian / Ronal Barbaren (2011) BDRip-AVC от 0ptimus | D, P

208 | 12

1.67 ГБ

В этой теме нет новых непрочитанных сообщений. Ронал-варвар / Ronal Barbaren (2011) BDRip 1080p | Лицензия

232 | 13

3.99 ГБ

В этой теме нет новых непрочитанных сообщений. Ронал-варвар / Ronal the Barbarian / Ronal Barbaren (2011) HDRip | КПК от Generalfilm

23 | 12

293.08 МБ

В этой теме нет новых непрочитанных сообщений. Ронал-варвар / Ronal Barbaren (2011) BDRip от HELLYWOOD

55 | 5

1.45 ГБ

В этой теме нет новых непрочитанных сообщений. Ронал-варвар / Ronal Barbaren (2011) BDRip 720p

34 | 6

1.44 ГБ




Вы не можете начинать темы
Вы не можете отвечать на сообщения
Вы не можете редактировать свои сообщения
Вы не можете удалять свои сообщения
Вы не можете добавлять вложения

Перейти:  
Для Мосгорсуда, Роскомнадзора и рекламодателей: mosgorsud-torrent[собачка]yandex.ru
 Вход
ppkBB3cker v.2 © 2008-2014 @ PPK
[ Time : 0.048s | 15 Queries | GZIP : Off ]

Торрент трекер RUTOR.IN, Не можете зайти на rutor.org? Какой новый адрес рутор? Какое зеркало рутор? Не работает rutor.org и зеркала? Тогда наш торрент специально для вас. Rutor.in неофициальное зеркало rutor. В случае если у Вас заблокирован rutor или вдруг Вы не можете на него зайти, то Вы без труда сможете скачать бесплатно и без рекламы последние новинки кино, игр, сериалов и прочего у нас, на Rutor.in. Не нужно использовать прокси, чтобы зайти на рутор, достаточно воспользоваться нашим ресурсом. Все новые фильмы, игры, сериалы, книги и музыка за 2013 и 2014 годы через торрент бесплатно. Скачивайте фильмы в хорошем качестве, игры для пк, xbox, playstation без регистрации. У нас вы найдете новые Зарубежные сериалы и Русские сериалы 2013, 2014, 2015 годов. Оставайтесь с нами, качайте любимые фильмы, игры, сериалы, книги и музыку.
cron