img image001 image001 image001 image001 image001 image001 image001 image001 image001 image001 image001 image001 image001 image001 image001

Planets Sun Sun Sun
Статистика раздачи
Автор: Снежана | Размер: 2.19 ГБ | Добавлен: 27 июл 2013
Раздают: 650    Качают: 30
Скачать торрент
Скачать торрент
Описание торрента

СообщениеДобавлено: 27 июл 2013 

#77

Информация о фильме
Название: Иван Царевич и Серый Волк
Год выхода: 2011
Жанр: мультфильм, комедия, приключения, семейный
Режиссер: Владимир Торопчин
В ролях: Никита Ефремов, Иван Охлобыстин, Артур Смольянинов, Лия Ахеджакова, Кристина Асмус, Виктор Сухоруков, Сергей Гармаш, Михаил Боярский, Татьяна Бунина, Сергей Русскин

О фильме: Увлекательная история от создателей богатырской трилогии, в которой героев русских народных сказок ждут новые приключения, опасности и забавные ситуации.



Выпущено: Анимационная студия "Мельница"
Продолжительность: 01:26:03
Перевод: Оригинал

Файл
Кодек: x264
Качество: BDRip (источник: Blu-ray Disc)
Видео: 1920x1080 (16:9), 23.976 fps, 3187 kbps
Звук: 48 kHz, AC-3, 6 ch, 448 kbps
Скачать: сэмпл

Скриншоты

Общее
Уникальный идентификатор : 249445594899312769079956624303904950771 (0xBBA9795CBB0BEE9B8DA71588403E89F3)
Полное имя : Ivan.Tsarevich.i.Seryy.Volk.2011.BDRip.1080p.Rus.mkv
Формат : Matroska
Версия формата : Version 2
Размер файла : 2,19 Гбайт
Продолжительность : 1 ч. 26 м.
Общий поток : 3637 Кбит/сек
Название фильма : Иван Царевич и Серый Волк (2011)
Дата кодирования : UTC 2012-02-07 21:41:55
Программа кодирования : mkvmerge v4.0.0 ('The Stars were mine') сборка от Jun 6 2010 16:18:42
Библиотека кодирования : libebml v1.0.0 + libmatroska v1.0.0

Видео
Идентификатор : 1
Формат : AVC
Формат/Информация : Advanced Video Codec
Профиль формата : High@L4.1
Параметр CABAC формата : Да
Параметр ReFrames формата : 4 кадра
Идентификатор кодека : V_MPEG4/ISO/AVC
Продолжительность : 1 ч. 26 м.
Битрейт : 3187 Кбит/сек
Ширина : 1920 пикселей
Высота : 1080 пикселей
Соотношение сторон : 16:9
Частота кадров : 23,976 кадра/сек
Цветовое пространство : YUV
Субдискретизация насыщенности : 4:2:0
Битовая глубина : 8 бит
Тип развёртки : Прогрессивная
Бит/(Пиксели*Кадры) : 0.064
Размер потока : 1,87 Гбайт (86%)
Заголовок : Release by AlexKa
Библиотека кодирования : x264 core 120 r2164 da19765
Настройки программы : cabac=1 / ref=4 / deblock=1:0:0 / analyse=0x3:0x133 / me=umh / subme=10 / psy=1 / psy_rd=1.00:0.00 / mixed_ref=1 / me_range=32 / chroma_me=1 / trellis=2 / 8x8dct=1 / cqm=0 / deadzone=21,11 / fast_pskip=0 / chroma_qp_offset=-2 / threads=12 / sliced_threads=0 / nr=0 / decimate=0 / interlaced=0 / bluray_compat=0 / constrained_intra=0 / bframes=3 / b_pyramid=2 / b_adapt=2 / b_bias=0 / direct=3 / weightb=1 / open_gop=0 / weightp=2 / keyint=240 / keyint_min=24 / scenecut=40 / intra_refresh=0 / rc_lookahead=60 / rc=2pass / mbtree=1 / bitrate=3187 / ratetol=1.0 / qcomp=0.60 / qpmin=0 / qpmax=69 / qpstep=4 / cplxblur=20.0 / qblur=0.5 / ip_ratio=1.40 / aq=1:1.00
Язык : Russian

Аудио
Идентификатор : 2
Формат : AC-3
Формат/Информация : Audio Coding 3
Расширение режима : CM (complete main)
Идентификатор кодека : A_AC3
Продолжительность : 1 ч. 26 м.
Вид битрейта : Постоянный
Битрейт : 448 Кбит/сек
Каналы : 6 каналов
Расположение каналов : Front: L C R, Side: L R, LFE
Частота : 48,0 КГц
Битовая глубина : 16 бит
Метод сжатия : С потерями
Размер потока : 276 Мбайт (12%)
Язык : Russian

Меню
00:00:00.000 : :Chapter 01
00:08:25.087 : :Chapter 02
00:15:22.212 : :Chapter 03
00:22:22.591 : :Chapter 04
00:29:26.097 : :Chapter 05
00:36:14.672 : :Chapter 06
00:45:18.090 : :Chapter 07
00:53:35.962 : :Chapter 08
01:00:50.605 : :Chapter 09
01:06:58.305 : :Chapter 10
01:14:15.409 : :Chapter 11
01:21:14.828 : :Chapter 12
01:26:03.074 : :Chapter 13



   Похожие торренты   Торрент   Размер 
В этой теме нет новых непрочитанных сообщений. Иван Царевич и Серый Волк (2011) BDrip 1080p | 3D-Video

53 | 13

4.49 ГБ

В этой теме нет новых непрочитанных сообщений. Иван Царевич и Серый Волк (2011) BDRip 1080p от FREEISLAND

27 | 11

4.37 ГБ

В этой теме нет новых непрочитанных сообщений. Иван Царевич и Серый Волк (2011) BDRip 1080p от LobanOFF | 3D-Video

18 | 4

4.35 ГБ

В этой теме нет новых непрочитанных сообщений. Иван Царевич и Серый Волк (2011) 3D BDRip 1080p от NOLIMITS-TEAM | 3D Video

38 | 2

4.37 ГБ

В этой теме нет новых непрочитанных сообщений. Иван Царевич и Серый Волк (2011) BDRip-AVC от R.G. AVI | AVC

73 | 11

1.46 ГБ

В этой теме нет новых непрочитанных сообщений. Иван Царевич и Серый Волк 2 (2013) BDRip 1080p

939 | 40

2.19 ГБ

В этой теме нет новых непрочитанных сообщений. Иван Царевич и Серый Волк (2011) BDRip-AVC от HQ-ViDEO

90 | 9

1.45 ГБ




Вы не можете начинать темы
Вы не можете отвечать на сообщения
Вы не можете редактировать свои сообщения
Вы не можете удалять свои сообщения
Вы не можете добавлять вложения

Перейти:  
Для Мосгорсуда, Роскомнадзора и рекламодателей: mosgorsud-torrent[собачка]yandex.ru
 Вход
ppkBB3cker v.2 © 2008-2014 @ PPK
[ Time : 0.050s | 15 Queries | GZIP : Off ]

cron