img image001 image001 image001 image001 image001 image001 image001 image001 image001 image001 image001 image001 image001 image001 image001

Planets Sun Sun Sun
Статистика раздачи
Автор: Снежана | Размер: 2.19 ГБ | Добавлен: 27 июл 2013
Раздают: 14    Качают: 3
Скачать торрент
Скачать торрент
Описание торрента

СообщениеДобавлено: 27 июл 2013 

Иван Царевич и Серый Волк (2011) BDRip-AVC
от DHT-Movies



Название: Иван Царевич и Серый Волк
Год выхода: 2011
Жанр: Мультфильм, комедия, приключения, семейный
Режиссер: Владимир Торопчин
В ролях: Никита Ефремов, Иван Охлобыстин, Артур Смольянинов, Лия Ахеджакова, Кристина Асмус, Виктор Сухоруков, Сергей Гармаш, Михаил Боярский, Татьяна Бунина, Сергей Русскин

Сюжет фильма:
Увлекательная история от создателей богатырской трилогии, в которой героев русских народных сказок ждут новые приключения, опасности и забавные ситуации.



Выпущено: Россия
Продолжительность: 01:25:58
Перевод: Не требуется (Оригинал)
Сохранены оригинальные чаптеры, как на блюрей

Релиз группы: | Рип от Ackles


Качество: BDRip-AVC (Источник: Blue-Bird / Blu-Ray / 1080p)
Формат: MKV
Видео кодек: H.264
Видео: AVC; 1024x576 (16:9) pix; ~3200 Kbps; 23.976 fps; x264(L4.1); 0.226 bits/pixel
Аудио (Оригинал): 48 kHz, AC3 Dolby Digital, 6 channels, ~448 kbps

Формат : Matroska
Версия формата : Version 2
Размер файла : 2,19 Гбайт
Продолжительность : 1 ч. 26 м.
Общий поток : 3650 Кбит/сек
Дата кодирования : UTC 2012-02-12 09:56:53
Программа кодирования : mkvmerge v5.0.1 ('Es ist Sommer') built on Oct 30 2011 21:53:49
Библиотека кодирования : libebml v1.2.2 + libmatroska v1.3.0

Видео
Идентификатор : 1
Формат : AVC
Формат/Информация : Advanced Video Codec
Профиль формата : High@L4.1
Параметр CABAC формата : Да
Параметр ReFrames формата : 8 кадров
Идентификатор кодека : V_MPEG4/ISO/AVC
Продолжительность : 1 ч. 26 м.
Битрейт : 3200 Кбит/сек
Ширина : 1024 пикселя
Высота : 576 пикселей
Соотношение сторон : 16:9
Частота кадров : 23,976 кадра/сек
Цветовое пространство : YUV
Субдискретизация насыщенности : 4:2:0
Битовая глубина : 8 бит
Тип развёртки : Прогрессивная
Бит/(Пиксели*Кадры) : 0.226
Размер потока : 1,88 Гбайт (86%)
Заголовок : MKV | x264 | Ackles
Библиотека кодирования : x264 core 119 r2106 07efeb4
Настройки программы : cabac=1 / ref=8 / deblock=1:-1:-1 / analyse=0x3:0x133 / me=umh / subme=11 / psy=1 / psy_rd=1.00:0.00 / mixed_ref=1 / me_range=32 / chroma_me=1 / trellis=2 / 8x8dct=1 / cqm=0 / deadzone=21,11 / fast_pskip=0 / chroma_qp_offset=-2 / threads=3 / sliced_threads=0 / nr=0 / decimate=1 / interlaced=0 / bluray_compat=0 / constrained_intra=0 / bframes=8 / b_pyramid=2 / b_adapt=2 / b_bias=0 / direct=3 / weightb=1 / open_gop=0 / weightp=2 / keyint=240 / keyint_min=24 / scenecut=40 / intra_refresh=0 / rc_lookahead=60 / rc=2pass / mbtree=1 / bitrate=3200 / ratetol=1.0 / qcomp=0.60 / qpmin=0 / qpmax=69 / qpstep=4 / cplxblur=20.0 / qblur=0.5 / ip_ratio=1.40 / aq=1:1.00
Язык : English
Default : Да
Forced : Нет

Аудио
Идентификатор : 2
Формат : AC-3
Формат/Информация : Audio Coding 3
Расширение режима : CM (complete main)
Идентификатор кодека : A_AC3
Продолжительность : 1 ч. 26 м.
Вид битрейта : Постоянный
Битрейт : 448 Кбит/сек
Каналы : 6 каналов
Расположение каналов : Front: L C R, Side: L R, LFE
Частота : 48,0 КГц
Битовая глубина : 16 бит
Метод сжатия : С потерями
Размер потока : 276 Мбайт (12%)
Заголовок : AC3 | RUS | 448
Язык : Russian
Default : Да
Forced : Нет

Меню
00:00:00.000 : :01
00:08:25.088 : :02
00:15:22.213 : :03
00:22:22.591 : :04
00:29:26.098 : :05
00:36:14.672 : :06
00:45:18.090 : :07
00:53:35.963 : :08
01:00:50.605 : :09
01:06:58.306 : :10
01:14:15.409 : :11
01:21:14.828 : :12
x264 [info]: frame I:1482 Avg QP: 3.13 size:250932
x264 [info]: frame P:35017 Avg QP: 6.85 size: 32229
x264 [info]: frame B:87293 Avg QP:13.28 size: 6475
x264 [info]: consecutive B-frames: 6.2% 4.5% 13.0% 44.6% 16.2% 8.1% 2.7% 2.5% 2.1%
x264 [info]: mb I I16..4: 22.3% 6.9% 70.8%
x264 [info]: mb P I16..4: 0.7% 1.6% 2.8% P16..4: 20.3% 6.9% 7.1% 4.5% 1.5% skip:54.7%
x264 [info]: mb B I16..4: 0.1% 0.3% 0.4% B16..8: 14.3% 6.1% 2.9% direct: 1.9% skip:73.9% L0:49.8% L1:41.1% BI: 9.1%
x264 [info]: 8x8 transform intra:23.2% inter:11.7%
x264 [info]: direct mvs spatial:96.2% temporal:3.8%
x264 [info]: coded y,uvDC,uvAC intra: 81.2% 85.6% 84.3% inter: 9.8% 11.8% 11.0%
x264 [info]: i16 v,h,dc,p: 44% 25% 17% 14%
x264 [info]: i8 v,h,dc,ddl,ddr,vr,hd,vl,hu: 16% 22% 21% 6% 6% 6% 6% 7% 10%
x264 [info]: i4 v,h,dc,ddl,ddr,vr,hd,vl,hu: 16% 17% 16% 7% 8% 8% 8% 8% 11%
x264 [info]: i8c dc,h,v,p: 47% 29% 16% 7%
x264 [info]: Weighted P-Frames: Y:0.8% UV:0.5%
x264 [info]: ref P L0: 57.0% 2.7% 14.9% 9.2% 4.5% 4.5% 3.1% 3.2% 0.9% 0.0%
x264 [info]: ref B L0: 69.7% 13.4% 8.4% 3.4% 2.6% 1.5% 0.9%
x264 [info]: ref B L1: 92.0% 8.0%
x264 [info]: kb/s:3200.62



   Похожие торренты   Торрент   Размер 
В этой теме нет новых непрочитанных сообщений. Иван Царевич и Серый Волк (2011) BDRip-AVC от R.G. AVI | AVC

73 | 11

1.46 ГБ

В этой теме нет новых непрочитанных сообщений. Иван Царевич и Серый Волк (2011) BDRip от MediaClub | КПК

226 | 10

342.81 МБ

В этой теме нет новых непрочитанных сообщений. Иван Царевич и Серый Волк (2011) BDRip от HELLYWOOD

86 | 13

1.45 ГБ

В этой теме нет новых непрочитанных сообщений. Иван Царевич и Серый Волк (2011) BDRip 1080p

650 | 30

2.19 ГБ

В этой теме нет новых непрочитанных сообщений. Иван Царевич и Серый Волк (2011) BDRip от HQCLUB

1778 | 71

1.45 ГБ

В этой теме нет новых непрочитанных сообщений. Иван Царевич и Серый Волк (2011) BDRip от HQ-ViDEO

28 | 10

1.45 ГБ

В этой теме нет новых непрочитанных сообщений. Иван Царевич и Серый Волк (2011) BDRip-AVC от HQ-ViDEO

90 | 9

1.45 ГБ




Вы не можете начинать темы
Вы не можете отвечать на сообщения
Вы не можете редактировать свои сообщения
Вы не можете удалять свои сообщения
Вы не можете добавлять вложения

Перейти:  
Для Мосгорсуда, Роскомнадзора и рекламодателей: mosgorsud-torrent[собачка]yandex.ru
 Вход
ppkBB3cker v.2 © 2008-2014 @ PPK
[ Time : 0.071s | 14 Queries | GZIP : Off ]

Торрент трекер RUTOR.IN, Не можете зайти на rutor.org? Какой новый адрес рутор? Какое зеркало рутор? Не работает rutor.org и зеркала? Тогда наш торрент специально для вас. Rutor.in неофициальное зеркало rutor. В случае если у Вас заблокирован rutor или вдруг Вы не можете на него зайти, то Вы без труда сможете скачать бесплатно и без рекламы последние новинки кино, игр, сериалов и прочего у нас, на Rutor.in. Не нужно использовать прокси, чтобы зайти на рутор, достаточно воспользоваться нашим ресурсом. Все новые фильмы, игры, сериалы, книги и музыка за 2013 и 2014 годы через торрент бесплатно. Скачивайте фильмы в хорошем качестве, игры для пк, xbox, playstation без регистрации. У нас вы найдете новые Зарубежные сериалы и Русские сериалы 2013, 2014, 2015 годов. Оставайтесь с нами, качайте любимые фильмы, игры, сериалы, книги и музыку.