img image001 image001 image001 image001 image001 image001 image001 image001 image001 image001 image001 image001 image001 image001 image001

Planets Sun Sun Sun
Статистика раздачи
Автор: Снежана | Размер: 4.37 ГБ | Добавлен: 27 июл 2013
Раздают: 81    Качают: 9
Скачать торрент
Скачать торрент
Описание торрента

СообщениеДобавлено: 27 июл 2013 

#77

Информация о фильме
Название: Цыплёнок Цыпа
Оригинальное название: Chicken Little
Год выхода: 2005
Жанр: фантастика, комедия, приключения, семейный, мультфильм
Режиссер: Марк Диндал
В ролях: Зак Брафф, Гарри Маршалл, Don Knotts, Патрик Стюарт, Эми Седарис, Стив Занн, Джоан Кьюсак, Уоллес Шоун, Гарри Ширер, Фред Уиллард, Катрин О`Хара, Патрик Варбертон, Адам Уэст, Марк Уолтон, Марк Диндал, Дэн Молина, Джо Уайт, Шон Элмор, Ивэн Данн, Matthew Michael Josten, Келли Хувер

О фильме:
В основе фильма лежит старая басня про цыпленка, который вопил о том, что небеса падают на землю каждый раз, когда ему на голову падал желудь. Вот уже год, как Цыпленок пытается преодолеть позор своей ошибки (про падающие небеса) и жить как ни в чем не бывало. Но — увы! — желающих дружить с неудачником немного, и поэтому в товарищах у него ходят такие же изгои, как и он сам. Но однажды действительно случается несчастье — пора бить тревогу! Но кто поверит Цыпленку , ведь он уже опростоволосился однажды… Теперь будущее планеты зависит от скромных бойцов невидимого фронта: свиненка-акселерата, убогонькой уточки, золотой рыбки-мутанта и Цыпленка, с которым никто не хочет знаться…



Страна: США
Продолжительность: 01:20:19
Перевод: Дублированный + Оригинал

Файл
Кодек: H264
Качество: BDRip 1080p
Видео: 1920x1080, 23.976 fps, 6902 kbps
Аудио #1: AC-3, 6 ch, 448 kbps (Rus)
Аудио #2: AC-3, 6 ch, 448 kbps (Eng)
Cубтитры: русские, английские

General
Unique ID : 210133066957981301602004554960320108628 (0x9E162816AD6D5A4F9927EED478209854)
Complete name : Цыплёнок Цыпа.2005.BDRip.1080p.Rus.Eng.mkv
Format : Matroska
Format version : Version 2
File size : 4.37 GiB
Duration : 1h 20mn
Overall bit rate : 7 789 Kbps
Movie name : Цыплёнок Цыпа.2005
Encoded date : UTC 2012-02-13 16:54:18
Writing application : mkvmerge v5.3.0 ('I could have danced') built on Feb 9 2012 10:38:07
Writing library : libebml v1.2.3 + libmatroska v1.3.0

Video
ID : 1
Format : AVC
Format/Info : Advanced Video Codec
Format profile : High@L4.1
Format settings, CABAC : Yes
Format settings, ReFrames : 4 frames
Codec ID : V_MPEG4/ISO/AVC
Duration : 1h 20mn
Bit rate : 6 902 Kbps
Width : 1 920 pixels
Height : 1 080 pixels
Display aspect ratio : 16:9
Frame rate mode : Variable
Frame rate : 23.976 fps
Color space : YUV
Chroma subsampling : 4:2:0
Bit depth : 8 bits
Scan type : Progressive
Bits/(Pixel*Frame) : 0.139
Stream size : 3.78 GiB (87%)
Title : Rip by Boriy
Writing library : x264 core 120 r2146M bcd41db
Encoding settings : cabac=1 / ref=4 / deblock=1:0:0 / analyse=0x3:0x133 / me=umh / subme=10 / psy=1 / psy_rd=1.00:0.10 / mixed_ref=1 / me_range=32 / chroma_me=1 / trellis=2 / 8x8dct=1 / cqm=0 / deadzone=21,11 / fast_pskip=0 / chroma_qp_offset=-3 / threads=12 / sliced_threads=0 / nr=0 / decimate=1 / interlaced=0 / bluray_compat=0 / constrained_intra=0 / bframes=5 / b_pyramid=2 / b_adapt=2 / b_bias=0 / direct=3 / weightb=1 / open_gop=0 / weightp=2 / keyint=240 / keyint_min=24 / scenecut=40 / intra_refresh=0 / rc_lookahead=60 / rc=2pass / mbtree=1 / bitrate=6902 / ratetol=1.0 / qcomp=0.60 / qpmin=0 / qpmax=69 / qpstep=4 / cplxblur=20.0 / qblur=0.5 / ip_ratio=1.40 / aq=1:1.00
Language : English
Default : Yes
Forced : No

Audio #1
ID : 2
Format : AC-3
Format/Info : Audio Coding 3
Mode extension : CM (complete main)
Codec ID : A_AC3
Duration : 1h 20mn
Bit rate mode : Constant
Bit rate : 448 Kbps
Channel(s) : 6 channels
Channel positions : Front: L C R, Side: L R, LFE
Sampling rate : 48.0 KHz
Bit depth : 16 bits
Compression mode : Lossy
Stream size : 257 MiB (6%)
Title : Дубляж
Language : Russian
Default : Yes
Forced : No

Audio #2
ID : 3
Format : AC-3
Format/Info : Audio Coding 3
Mode extension : CM (complete main)
Codec ID : A_AC3
Duration : 1h 20mn
Bit rate mode : Constant
Bit rate : 448 Kbps
Channel(s) : 6 channels
Channel positions : Front: L C R, Side: L R, LFE
Sampling rate : 48.0 KHz
Bit depth : 16 bits
Compression mode : Lossy
Stream size : 257 MiB (6%)
Title : Оригинал
Language : English
Default : No
Forced : No

Text #1
ID : 4
Format : UTF-8
Codec ID : S_TEXT/UTF8
Codec ID/Info : UTF-8 Plain Text
Title : Rus
Language : Russian
Default : No
Forced : No

Text #2
ID : 5
Format : UTF-8
Codec ID : S_TEXT/UTF8
Codec ID/Info : UTF-8 Plain Text
Title : Eng
Language : English
Default : No
Forced : No

Menu
00:00:00.000 : en:
00:03:59.364 : en:
00:05:44.093 : en:
00:10:02.018 : en:
00:15:08.699 : en:
00:21:43.844 : en:
00:28:14.442 : en:
00:30:57.021 : en:
00:36:35.776 : en:
00:40:15.413 : en:
00:43:31.817 : en:
00:46:29.411 : en:
00:50:22.436 : en:
00:52:29.146 : en:
00:56:12.494 : en:
00:59:16.719 : en:
01:01:29.435 : en:
01:07:18.451 : en:
01:10:52.831 : en:
01:14:01.562 : en:
01:20:18.730 : en:



   Похожие торренты   Торрент   Размер 
В этой теме нет новых непрочитанных сообщений. Цыпленок Цыпа / Chicken Little (2005) BDRip 1080p

10 | 3

7.94 ГБ

В этой теме нет новых непрочитанных сообщений. Цыплёнок Цыпа / Chicken Little (2005) BDRip 720p

4 | 2

4.29 ГБ

В этой теме нет новых непрочитанных сообщений. Цыплёнок Цыпа / Chicken Little (2005) BDRip 720 от SuperMin

105 | 14

2.06 ГБ

В этой теме нет новых непрочитанных сообщений. Цыпленок Цыпа / Chicken Little (2005) BDRip от HELLYWOOD

7 | 6

2.11 ГБ

В этой теме нет новых непрочитанных сообщений. Цыпленок Цыпа / Chicken Little (2005) BDRip-AVC | iPad

208 | 3

1.62 ГБ

В этой теме нет новых непрочитанных сообщений. Цыплёнок Цыпа / Chicken Little (2005) BDRip-AVC от NovaLan

47 | 6

1.45 ГБ

В этой теме нет новых непрочитанных сообщений. Цыпленок Цыпа / Chicken Little (2005) BDRip Релиз от HQ-ViDEO

261 | 12

1.46 ГБ




Вы не можете начинать темы
Вы не можете отвечать на сообщения
Вы не можете редактировать свои сообщения
Вы не можете удалять свои сообщения
Вы не можете добавлять вложения

Перейти:  
Для Мосгорсуда, Роскомнадзора и рекламодателей: mosgorsud-torrent[собачка]yandex.ru
 Вход
ppkBB3cker v.2 © 2008-2014 @ PPK
[ Time : 1.800s | 14 Queries | GZIP : Off ]

Торрент трекер RUTOR.IN, Не можете зайти на rutor.org? Какой новый адрес рутор? Какое зеркало рутор? Не работает rutor.org и зеркала? Тогда наш торрент специально для вас. Rutor.in неофициальное зеркало rutor. В случае если у Вас заблокирован rutor или вдруг Вы не можете на него зайти, то Вы без труда сможете скачать бесплатно и без рекламы последние новинки кино, игр, сериалов и прочего у нас, на Rutor.in. Не нужно использовать прокси, чтобы зайти на рутор, достаточно воспользоваться нашим ресурсом. Все новые фильмы, игры, сериалы, книги и музыка за 2013 и 2014 годы через торрент бесплатно. Скачивайте фильмы в хорошем качестве, игры для пк, xbox, playstation без регистрации. У нас вы найдете новые Зарубежные сериалы и Русские сериалы 2013, 2014, 2015 годов. Оставайтесь с нами, качайте любимые фильмы, игры, сериалы, книги и музыку.