img image001 image001 image001 image001 image001 image001 image001 image001 image001 image001 image001 image001 image001 image001 image001

Planets Sun Sun Sun
Статистика раздачи
Автор: Снежана | Размер: 3.77 ГБ | Добавлен: 27 июл 2013
Раздают: 81    Качают: 14
Скачать торрент
Скачать торрент
Описание торрента

СообщениеДобавлено: 27 июл 2013 

#77

Информация о фильме
Название: Смешарики. Начало
Оригинальное название: Смешарики. Начало
Год выхода: 2011
Жанр: мультфильм, комедия, приключения, семейный
Режиссер: Денис Чернов
В ролях: Вадим Бочанов, Сергей Мардарь, Антон Виноградов, Светлана Письмиченко, Владимир Постников, Михаил Черняк, Ксения Бржезовская, Михаил Хрусталев, Владимир Маслаков, Андрей Лёвин

О фильме: Такую экстремальную историю про Смешариков вы не могли себе представить: покинув свою уютную страну, Смешарики оказываются в современном мегаполисе в роли супергероев! Зачем? Они приняли очень важное для себя решение — спасти мир от нависшей угрозы. Этот «ответственный» шаг приводит к самому захватывающему приключению в их жизни!



Выпущено: Россия, Базелевс Продакшн
Продолжительность: 01:30:56
Озвучивание: Оригинальное [лицензия]

Файл
Формат: MKV
Качество: BDRip 720p
Видео: MPEG-4 AVC, 4300 Кбит/с, 1280x720, 23.976 кадр/с
Аудио: DTS, 6 ch, 1510 Кбит/с
Скачать: Сэмпл

Смешарики.Начало.2011.720p.Blu-ray.DD5.1.x264-HDT.mkv
Format : Matroska
Format version : Version 2
File size : 3.77 GiB
Duration : 1h 30mn
Overall bit rate : 5 928 Kbps
Movie name : HDT
Encoded date : UTC 2012-02-16 06:06:55
Writing application : mkvmerge v5.0.1 ('Es ist Sommer') built on Oct 9 2011 11:55:43
Writing library : libebml v1.2.2 + libmatroska v1.3.0

Video
ID : 1
Format : AVC
Format/Info : Advanced Video Codec
Format profile : High@L4.1
Format settings, CABAC : Yes
Format settings, ReFrames : 9 frames
Codec ID : V_MPEG4/ISO/AVC
Duration : 1h 30mn
Bit rate : 4 300 Kbps
Width : 1 280 pixels
Height : 720 pixels
Display aspect ratio : 16:9
Frame rate : 23.976 fps
Color space : YUV
Chroma subsampling : 4:2:0
Bit depth : 8 bits
Scan type : Progressive
Bits/(Pixel*Frame) : 0.195
Stream size : 2.73 GiB (73%)
Title : HDT
Writing library : x264 core 116 r2074 2641b9e
Encoding settings : cabac=1 / ref=9 / deblock=1:-1:-1 / analyse=0x3:0x113 / me=umh / subme=10 / psy=1 / psy_rd=1.20:0.00 / mixed_ref=1 / me_range=32 / chroma_me=1 / trellis=2 / 8x8dct=1 / cqm=0 / deadzone=21,11 / fast_pskip=0 / chroma_qp_offset=-2 / threads=12 / sliced_threads=0 / nr=0 / decimate=1 / interlaced=0 / bluray_compat=0 / constrained_intra=0 / bframes=9 / b_pyramid=2 / b_adapt=2 / b_bias=0 / direct=1 / weightb=1 / open_gop=0 / weightp=2 / keyint=250 / keyint_min=23 / scenecut=40 / intra_refresh=0 / rc_lookahead=40 / rc=crf / mbtree=0 / crf=17.0 / qcomp=0.60 / qpmin=10 / qpmax=69 / qpstep=4 / vbv_maxrate=50000 / vbv_bufsize=62500 / crf_max=0.0 / nal_hrd=none / ip_ratio=1.40 / pb_ratio=1.30 / aq=1:1.00
Language : Russian
Default : Yes
Forced : Yes

Audio
ID : 2
Format : DTS
Format/Info : Digital Theater Systems
Codec ID : A_DTS
Duration : 1h 30mn
Bit rate mode : Constant
Bit rate : 1 510 Kbps
Channel(s) : 6 channels
Channel positions : Front: L C R, Side: L R, LFE
Sampling rate : 48.0 KHz
Bit depth : 24 bits
Compression mode : Lossy
Stream size : 982 MiB (25%)
Title : HDT
Language : Russian
Default : Yes
Forced : Yes

Menu
00:00:00.000 : :00:00:00.000
00:13:21.718 : :00:13:21.718
00:34:07.003 : :00:34:07.003
00:53:46.223 : :00:53:46.223
01:12:34.392 : :01:12:34.392]


Скриншоты





   Похожие торренты   Торрент   Размер 
В этой теме нет новых непрочитанных сообщений. Смешарики. Начало (2011) BDRip от HQCLUB | Лицензия

1171 | 40

1.45 ГБ

В этой теме нет новых непрочитанных сообщений. Смешарики. Начало (2011) DVD5 | Лицензия

150 | 7

4.07 ГБ

В этой теме нет новых непрочитанных сообщений. Смешарики. Начало (2011) DVDRip-AVC | Лицензия

18 | 4

1.37 ГБ

В этой теме нет новых непрочитанных сообщений. Смешарики. Начало (2011) DVDRip | Лицензия

67 | 5

703.16 МБ

В этой теме нет новых непрочитанных сообщений. Смешарики. Начало (2011) DVD9 | Лицензия

14 | 8

5.54 ГБ

В этой теме нет новых непрочитанных сообщений. Смешарики. Начало (2011) HDRip | Лицензия

317 | 26

743.93 МБ

В этой теме нет новых непрочитанных сообщений. Смешарики. Начало (2011) BDRip-AVC

121 | 9

1.46 ГБ




Вы не можете начинать темы
Вы не можете отвечать на сообщения
Вы не можете редактировать свои сообщения
Вы не можете удалять свои сообщения
Вы не можете добавлять вложения

Перейти:  
Для Мосгорсуда, Роскомнадзора и рекламодателей: mosgorsud-torrent[собачка]yandex.ru
 Вход
ppkBB3cker v.2 © 2008-2014 @ PPK
[ Time : 0.035s | 14 Queries | GZIP : Off ]

Торрент трекер RUTOR.IN, Не можете зайти на rutor.org? Какой новый адрес рутор? Какое зеркало рутор? Не работает rutor.org и зеркала? Тогда наш торрент специально для вас. Rutor.in неофициальное зеркало rutor. В случае если у Вас заблокирован rutor или вдруг Вы не можете на него зайти, то Вы без труда сможете скачать бесплатно и без рекламы последние новинки кино, игр, сериалов и прочего у нас, на Rutor.in. Не нужно использовать прокси, чтобы зайти на рутор, достаточно воспользоваться нашим ресурсом. Все новые фильмы, игры, сериалы, книги и музыка за 2013 и 2014 годы через торрент бесплатно. Скачивайте фильмы в хорошем качестве, игры для пк, xbox, playstation без регистрации. У нас вы найдете новые Зарубежные сериалы и Русские сериалы 2013, 2014, 2015 годов. Оставайтесь с нами, качайте любимые фильмы, игры, сериалы, книги и музыку.