img image001 image001 image001 image001 image001 image001 image001 image001 image001 image001 image001 image001 image001 image001 image001

Planets Sun Sun Sun
Статистика раздачи
Автор: Снежана | Размер: 4.37 ГБ | Добавлен: 27 июл 2013, 07:23
Раздают: 396    Качают: 14
Скачать торрент
Скачать торрент
Описание торрента

СообщениеДобавлено: 27 июл 2013, 07:23 

#77

Информация о фильме
Название: Смешарики. Начало
Год выхода: 2011
Жанр: мультфильм, комедия, приключения, семейный
Режиссер: Денис Чернов
В ролях: Михаил Черняк, Сергей Мардарь, Антон Виноградов, Владимир Постников, Светлана Письмиченко, Вадим Бочанов, Михаил Хрусталев, Станислав Концевич, Владимир Маслаков, Ксения Бржезовская

О фильме: Такую экстремальную историю про Смешариков вы не могли себе представить: покинув свою уютную страну, Смешарики оказываются в современном мегаполисе в роли супергероев! Зачем? Они приняли очень важное для себя решение — спасти мир от нависшей угрозы. Этот «ответственный» шаг приводит к самому захватывающему приключению в их жизни!



Выпущено: Базелевс Продакшн
Продолжительность: 01:30:56
Перевод: Оригинал

Файл
Кодек: x264
Качество: BDRip (источник: Blu-ray Disc)
Видео: 1920x1080 (16:9), 23.976 fps, 6432 kbps
Звук: 48 kHz, AC-3, 6 ch, 448 kbps
Скачать: сэмпл

Скриншоты

Общее
Уникальный идентификатор : 176359921845870053407441880048916802119 (0x84ADAF7978FEE0C292F8FF879A20AA47)
Полное имя : Smeshariki.Nachalo.2011.BDRip.1080p.Rus.mkv
Формат : Matroska
Версия формата : Version 2
Размер файла : 4,37 Гбайт
Продолжительность : 1 ч. 30 м.
Общий поток : 6882 Кбит/сек
Название фильма : Смешарики. Начало (2011)
Дата кодирования : UTC 2012-02-17 08:16:31
Программа кодирования : mkvmerge v4.0.0 ('The Stars were mine') сборка от Jun 6 2010 16:18:42
Библиотека кодирования : libebml v1.0.0 + libmatroska v1.0.0

Видео
Идентификатор : 1
Формат : AVC
Формат/Информация : Advanced Video Codec
Профиль формата : High@L4.1
Параметр CABAC формата : Да
Параметр ReFrames формата : 4 кадра
Идентификатор кодека : V_MPEG4/ISO/AVC
Продолжительность : 1 ч. 30 м.
Битрейт : 6432 Кбит/сек
Ширина : 1920 пикселей
Высота : 1080 пикселей
Соотношение сторон : 16:9
Частота кадров : 23,976 кадра/сек
Цветовое пространство : YUV
Субдискретизация насыщенности : 4:2:0
Битовая глубина : 8 бит
Тип развёртки : Прогрессивная
Бит/(Пиксели*Кадры) : 0.129
Размер потока : 4,00 Гбайт (92%)
Заголовок : Release by AlexKa
Библиотека кодирования : x264 core 120 r2164 da19765
Настройки программы : cabac=1 / ref=4 / deblock=1:0:0 / analyse=0x3:0x133 / me=umh / subme=10 / psy=1 / psy_rd=1.00:0.00 / mixed_ref=1 / me_range=32 / chroma_me=1 / trellis=2 / 8x8dct=1 / cqm=0 / deadzone=21,11 / fast_pskip=0 / chroma_qp_offset=-2 / threads=12 / sliced_threads=0 / nr=0 / decimate=0 / interlaced=0 / bluray_compat=0 / constrained_intra=0 / bframes=3 / b_pyramid=2 / b_adapt=2 / b_bias=0 / direct=3 / weightb=1 / open_gop=0 / weightp=2 / keyint=240 / keyint_min=24 / scenecut=40 / intra_refresh=0 / rc_lookahead=60 / rc=2pass / mbtree=1 / bitrate=6432 / ratetol=1.0 / qcomp=0.60 / qpmin=0 / qpmax=69 / qpstep=4 / cplxblur=20.0 / qblur=0.5 / ip_ratio=1.40 / aq=1:1.00
Язык : Russian

Аудио
Идентификатор : 2
Формат : AC-3
Формат/Информация : Audio Coding 3
Расширение режима : CM (complete main)
Идентификатор кодека : A_AC3
Продолжительность : 1 ч. 30 м.
Вид битрейта : Постоянный
Битрейт : 448 Кбит/сек
Каналы : 6 каналов
Расположение каналов : Front: L C R, Side: L R, LFE
Частота : 48,0 КГц
Битовая глубина : 16 бит
Метод сжатия : С потерями
Размер потока : 291 Мбайт (7%)
Язык : Russian

Меню
00:00:00.000 : :Chapter 01
00:13:21.717 : :Chapter 02
00:34:07.003 : :Chapter 03
00:53:46.223 : :Chapter 04
01:12:34.391 : :Chapter 05
01:30:56.367 : :Chapter 06



   Похожие торренты   Торрент   Размер 
В этой теме нет новых непрочитанных сообщений. Смешарики. Начало (2011) BDRip-AVC

121 | 9

1.46 ГБ

В этой теме нет новых непрочитанных сообщений. Смешарики. Начало (2011) BDRip от HELLYWOOD

77 | 6

1.45 ГБ

В этой теме нет новых непрочитанных сообщений. Смешарики. Начало (2011) BDRip от HQ-ViDEO

35 | 5

1.45 ГБ

В этой теме нет новых непрочитанных сообщений. Смешарики. Начало (2011) BDRip 720p | Лицензия

81 | 14

3.77 ГБ

В этой теме нет новых непрочитанных сообщений. Смешарики. Начало (2011) BDRip от HQCLUB | Лицензия

1171 | 40

1.45 ГБ

В этой теме нет новых непрочитанных сообщений. Смешарики. Начало (2011) DVD5 | Лицензия

150 | 7

4.07 ГБ

В этой теме нет новых непрочитанных сообщений. Смешарики. Начало (2011) DVD9 | Лицензия

14 | 8

5.54 ГБ




Вы не можете начинать темы
Вы не можете отвечать на сообщения
Вы не можете редактировать свои сообщения
Вы не можете удалять свои сообщения
Вы не можете добавлять вложения

Перейти:  
Для Мосгорсуда, Роскомнадзора и рекламодателей: mosgorsud-torrent[собачка]yandex.ru
Настройки
ppkBB3cker v.2 © 2008-2014 @ PPK
[ Time : 0.295s | 15 Queries | GZIP : Off ]
CGP [Extreme] output time : 0.00033s | 0 Queries | GZIP : Off

Торрент трекер RUTOR.IN, Не можете зайти на rutor.org? Какой новый адрес рутор? Какое зеркало рутор? Не работает rutor.org и зеркала? Тогда наш торрент специально для вас. Rutor.in неофициальное зеркало rutor. В случае если у Вас заблокирован rutor или вдруг Вы не можете на него зайти, то Вы без труда сможете скачать бесплатно и без рекламы последние новинки кино, игр, сериалов и прочего у нас, на Rutor.in. Не нужно использовать прокси, чтобы зайти на рутор, достаточно воспользоваться нашим ресурсом. Все новые фильмы, игры, сериалы, книги и музыка за 2013 и 2014 годы через торрент бесплатно. Скачивайте фильмы в хорошем качестве, игры для пк, xbox, playstation без регистрации. У нас вы найдете новые Зарубежные сериалы и Русские сериалы 2013, 2014, 2015 годов. Оставайтесь с нами, качайте любимые фильмы, игры, сериалы, книги и музыку.