img image001 image001 image001 image001 image001 image001 image001 image001 image001 image001 image001 image001 image001 image001 image001

Planets Sun Sun Sun
Статистика раздачи
Автор: Снежана | Размер: 744.62 МБ | Добавлен: 27 июл 2013
Раздают: 28    Качают: 4
Скачать торрент
Скачать торрент
Описание торрента

СообщениеДобавлено: 27 июл 2013 

#77

Информация о фильме
Название: Монстр в Париже
Оригинальное название: Un monstre à Paris
Год выхода: 2011
Жанр: мультфильм, фэнтези, комедия, приключения, музыка
Режиссер: Бибо Бержерон / Bibo Bergeron
В ролях: Ванесса Паради, Матье Шедид, Гад Эльмалех, Франсуа Клюзе, Людивин Санье, Жюли Ферье, Бруно Саломон, Себастьян Дежу, Филип Петью, Боб Бэлабан

О фильме:
Париж. 1910 год. Ужасный монстр, напоминающий гигантское насекомое, нагоняет страх на всю Францию. Застенчивый киномеханик и неутомимый изобретатель начинают охоту на него. В этой погоне они знакомятся со звездой кабаре, сумасшедшим ученым и его умной обезьянкой и, наконец, самим монстром, который оказывается совсем не страшным. Теперь безобидное, как блоха, чудовище ищет у своих новых друзей защиты от вредного начальника городской полиции.

Страна: Франция
Продолжительность: 01:26:20
Перевод: Профессиональный (дублированный)

Файл
Кодек: XviD / MP3
Качество: BDRip [Исходник: Blu-ray 1080p]
Видео: XviD, 720x384 (1,875:1), 23.976 fps, 1021 kbps, 0.154 bit/pixel
Звук: MP3, 48 kHz, 2 ch, 128 kbps

Общее
Полное имя : A.MONSTER.IN.PARIS.2011A.MONSTER.IN.PARIS.2011.BDRip.745.avi
Формат : AVI
Формат/Информация : Audio Video Interleave
Размер файла : 745 Мбайт
Продолжительность : 1 ч. 29 м.
Общий поток : 1158 Кбит/сек
Программа кодирования : VirtualDubModRus 1.5.10.2 (build 2542/release)
Библиотека кодирования : VirtualDubMod build 2542/release

Видео
Идентификатор : 0
Формат : MPEG-4 Visual
Профиль формата : Advanced Simple@L5
Параметр BVOP формата : 1
Параметр QPel формата : Нет
Параметр GMC формата : Без точки перехода
Параметр матрицы формата : Выборочная
Идентификатор кодека : XVID
Идентификатор кодека/Подсказка : XviD
Продолжительность : 1 ч. 29 м.
Битрейт : 1021 Кбит/сек
Ширина : 720 пикселей
Высота : 384 пикселя
Соотношение сторон : 1,875
Частота кадров : 23,976 кадра/сек
Цветовое пространство : YUV
Субдискретизация насыщенности : 4:2:0
Битовая глубина : 8 бит
Тип развёртки : Прогрессивная
Метод сжатия : С потерями
Бит/(Пиксели*Кадры) : 0.154
Размер потока : 656 Мбайт (88%)
Библиотека кодирования : XviD 64

Аудио
Идентификатор : 1
Формат : MPEG Audio
Версия формата : Version 1
Профиль формата : Layer 3
Режим : Joint stereo
Расширение режима : MS Stereo
Идентификатор кодека : 55
Идентификатор кодека/Подсказка : MP3
Продолжительность : 1 ч. 29 м.
Вид битрейта : Постоянный
Битрейт : 128 Кбит/сек
Каналы : 2 канала
Частота : 48,0 КГц
Метод сжатия : С потерями
Размер потока : 82,3 Мбайт (11%)
Выравнивание : Соединение по промежуткам
Продолжительность промежутка : 42 мс. (1,00 видеокадр)
Время предзагрузки промежутка : 504 мс.
Библиотека кодирования : LAME3.9




   Похожие торренты   Торрент   Размер 
В этой теме нет новых непрочитанных сообщений. Монстр в Париже / Un monstre a Paris / A Monster in Paris (2011) BDRip-AVC от HQ-ViDEO

163 | 9

2.18 ГБ

В этой теме нет новых непрочитанных сообщений. Монстр в Париже / Un monstre a Paris / A Monster in Paris (2011) BDRip 1080p

53 | 2

4.37 ГБ

В этой теме нет новых непрочитанных сообщений. Монстр в Париже / Un monstre a Paris / A Monster in Paris (2011) BDRip от HELLYWOOD

33 | 7

1.45 ГБ

В этой теме нет новых непрочитанных сообщений. Монстр в Париже / Un monstre a Paris / A Monster in Paris (2011) BDRip от HQCLUB

69 | 5

1.45 ГБ

В этой теме нет новых непрочитанных сообщений. Монстр в Париже / Un monstre à Paris / A Monster in Paris (2011) BDRip 720p | Лицензия

137 | 4

5.33 ГБ

В этой теме нет новых непрочитанных сообщений. Монстр в Париже / Un monstre a Paris / A Monster in Paris (2011) BDRIp 1080p от FREEISLAND

8 | 2

6.68 ГБ

В этой теме нет новых непрочитанных сообщений. Монстр в Париже / Un monstre à Paris (2011) BDRip-AVC

67 | 4

1.5 ГБ




Вы не можете начинать темы
Вы не можете отвечать на сообщения
Вы не можете редактировать свои сообщения
Вы не можете удалять свои сообщения
Вы не можете добавлять вложения

Перейти:  
Для Мосгорсуда, Роскомнадзора и рекламодателей: mosgorsud-torrent[собачка]yandex.ru
 Вход
ppkBB3cker v.2 © 2008-2014 @ PPK
[ Time : 0.032s | 14 Queries | GZIP : Off ]

Торрент трекер RUTOR.IN, Не можете зайти на rutor.org? Какой новый адрес рутор? Какое зеркало рутор? Не работает rutor.org и зеркала? Тогда наш торрент специально для вас. Rutor.in неофициальное зеркало rutor. В случае если у Вас заблокирован rutor или вдруг Вы не можете на него зайти, то Вы без труда сможете скачать бесплатно и без рекламы последние новинки кино, игр, сериалов и прочего у нас, на Rutor.in. Не нужно использовать прокси, чтобы зайти на рутор, достаточно воспользоваться нашим ресурсом. Все новые фильмы, игры, сериалы, книги и музыка за 2013 и 2014 годы через торрент бесплатно. Скачивайте фильмы в хорошем качестве, игры для пк, xbox, playstation без регистрации. У нас вы найдете новые Зарубежные сериалы и Русские сериалы 2013, 2014, 2015 годов. Оставайтесь с нами, качайте любимые фильмы, игры, сериалы, книги и музыку.