img image001 image001 image001 image001 image001 image001 image001 image001 image001 image001 image001 image001 image001 image001 image001

Planets Sun Sun Sun
Статистика раздачи
Автор: Снежана | Размер: 4.37 ГБ | Добавлен: 27 июл 2013
Раздают: 24    Качают: 3
Скачать торрент
Скачать торрент
Описание торрента

СообщениеДобавлено: 27 июл 2013 

#77

Информация о фильме
Название: Монстр в Париже
Оригинальное название: Un monstre à Paris
Год выхода: 2011
Жанр: Мультфильм, фэнтези, комедия, приключения, музыка
Режиссер: Бибо Бержерон
В ролях: Ванесса Паради, Матье Шедид, Гад Эльмалех, Франсуа Клюзе, Людивин Санье, Жюли Ферье, Бруно Саломон, Себастьян Дежу, Филип Петью, Боб Бэлабан

О фильме:
Париж. 1910 год. Ужасный монстр, напоминающий гигантское насекомое, нагоняет страх на всю Францию. Застенчивый киномеханик и неутомимый изобретатель начинают охоту на него. В этой погоне они знакомятся со звездой кабаре, сумасшедшим ученым и его умной обезьянкой и, наконец, самим монстром, который оказывается совсем не страшным. Теперь безобидное, как блоха, чудовище ищет у своих новых друзей защиты от вредного начальника городской полиции.

Страна: Франция
Продолжительность: 01:29:57
Перевод: Дубляж (лицензия)

Файл
Кодек: x264
Качество: BDRip 1080 3D-Video | Вертикальная анаморфная стереопара
Видео: 1920х1080, 6370 Кбит/сек, 23,976 кадра/сек
Звук: Русский / AC-3 / 5.1 ch / 448 Kbps / 48 KHz

Общее
Уникальный идентификатор : 189169584509437506395832047295727193831 (0x8E50BC9AD286407590B27871D6B0CEE7)
Полное имя : G:BazaВидеоДля просмотраМонстр в Париже-3D (2011).mkv
Формат : Matroska
Версия формата : Version 2
Размер файла : 4,37 Гбайт
Продолжительность : 1 ч. 29 м.
Общий поток : 6956 Кбит/сек
Название фильма : MONSTR_IN_PARIS_3D_BLUEBIRD.Title3.Bluray3DRip
Дата кодирования : UTC 2012-02-19 17:15:47
Программа кодирования : mkvmerge v5.2.1 ('A Far Off Place') built on Jan 2 2012 23:21:10
Библиотека кодирования : libebml v1.2.3 + libmatroska v1.3.0

Видео
Идентификатор : 1
Формат : AVC
Формат/Информация : Advanced Video Codec
Профиль формата : High@L5.1
Параметр CABAC формата : Да
Параметр ReFrames формата : 2 кадра
Режим смешивания : Header stripping
Идентификатор кодека : V_MPEG4/ISO/AVC
Продолжительность : 1 ч. 29 м.
Битрейт : 6370 Кбит/сек
Ширина : 1920 пикселей
Высота : 1080 пикселей
Соотношение сторон : 16:9
Частота кадров : 23,976 кадра/сек
Цветовое пространство : YUV
Субдискретизация насыщенности : 4:2:0
Битовая глубина : 8 бит
Тип развёртки : Прогрессивная
Бит/(Пиксели*Кадры) : 0.128
Размер потока : 4,00 Гбайт (92%)
Библиотека кодирования : x264 core
Default : Да
Forced : Нет
Основные цвета : BT.709-5, BT.1361, IEC 61966-2-4, SMPTE RP177
Характеристики трансфера : BT.709-5, BT.1361
Коэффициенты матрицы : BT.709-5, BT.1361, IEC 61966-2-4 709, SMPTE RP177

Аудио
Идентификатор : 2
Формат : AC-3
Формат/Информация : Audio Coding 3
Расширение режима : CM (complete main)
Режим смешивания : Header stripping
Идентификатор кодека : A_AC3
Продолжительность : 1 ч. 29 м.
Вид битрейта : Постоянный
Битрейт : 448 Кбит/сек
Каналы : 6 каналов
Расположение каналов : Front: L C R, Side: L R, LFE
Частота : 48,0 КГц
Битовая глубина : 16 бит
Метод сжатия : С потерями
Размер потока : 288 Мбайт (6%)
Default : Да
Forced : Нет



Релиз от: LobanOFF



   Похожие торренты   Торрент   Размер 
В этой теме нет новых непрочитанных сообщений. Монстр в Париже / Un monstre a Paris / A Monster in Paris (2011) BDRip-AVC от HQ-ViDEO

163 | 9

2.18 ГБ

В этой теме нет новых непрочитанных сообщений. Монстр в Париже / Un monstre a Paris (2011) BDRip от HQ-ViDEO

518 | 10

1.45 ГБ

В этой теме нет новых непрочитанных сообщений. Монстр в Париже / Un monstre a Paris / A Monster in Paris (2011) BDRip 1080p

53 | 2

4.37 ГБ

В этой теме нет новых непрочитанных сообщений. Монстр в Париже / Un monstre a Paris / A Monster in Paris (2011) BDRip от HELLYWOOD

33 | 7

1.45 ГБ

В этой теме нет новых непрочитанных сообщений. Монстр в Париже / Un monstre a Paris / A Monster in Paris (2011) BDRip от HQCLUB

69 | 5

1.45 ГБ

В этой теме нет новых непрочитанных сообщений. Монстр в Париже / Un monstre a Paris / A Monster in Paris (2011) BDRIp 1080p от FREEISLAND

8 | 2

6.68 ГБ

В этой теме нет новых непрочитанных сообщений. Монстр в Париже / Un monstre à Paris / A Monster in Paris (2011) BDRip 720p | Лицензия

137 | 4

5.33 ГБ




Вы не можете начинать темы
Вы не можете отвечать на сообщения
Вы не можете редактировать свои сообщения
Вы не можете удалять свои сообщения
Вы не можете добавлять вложения

Перейти:  
Для Мосгорсуда, Роскомнадзора и рекламодателей: mosgorsud-torrent[собачка]yandex.ru
 Вход
ppkBB3cker v.2 © 2008-2014 @ PPK
[ Time : 0.050s | 15 Queries | GZIP : Off ]

cron