img image001 image001 image001 image001 image001 image001 image001 image001 image001 image001 image001 image001 image001 image001 image001

Planets Sun Sun Sun
Статистика раздачи
Автор: Снежана | Размер: 4.37 ГБ | Добавлен: 27 июл 2013
Раздают: 54    Качают: 3
Скачать торрент
Скачать торрент
Описание торрента

СообщениеДобавлено: 27 июл 2013 

#77

Информация о фильме
Название: Нико: Путь к звездам
Оригинальное название: Niko - Lentajan poika
Год выхода: 2008
Жанр: мультфильм
Режиссер: Майкл Хэгнер, Кари Юуусонен
В ролях: Олли Янтунен, Ханну-Пекка Бьоркман, Вуокко Ховатта, Веса Вьерикко, Юсси Лампи, Ристо Каскилахти, Минтту Мустакалио, Юха Вейонен, Пунти Валтонен, Элина Книхтиля
Роли дублировали: Иван Чуваткин, Сергей Селин, Жанна Фриске, Михаил Лукашов, Мария Овчинникова, Лиза Мартиросова

О фильме:
Молодому северному оленю по имени Нико снится, что его отец - один из летающих оленей Санта Клауса. Несмотря на страдание от серьезного головокружения, он убегает из своего дома, чтобы взять лётные уроки у его друга, неуклюжей белки-летяги Юлии. Вскоре после этого, Нико и Юлия узнают, что Санта и его северный олень находятся в серьезной опасности. Они собирают своих лесных друзей и отправляются в поход на Северный полюс, чтобы спасти Санта Клауса и его отца.



Страна: Германия, Дания, Финляндия, Ирландия
Продолжительность: 01:20:44
Перевод: Дублированный + Оригинал (Eng)

Файл
Кодек: H264
Качество: BDRip 1080p
Видео: 1920x1032, 23.976 fps, 6860 kbps
Аудио #1: AC-3, 6 ch, 448 kbps (Rus)
Аудио #2: AC-3, 6 ch, 448 kbps (Eng)
Cубтитры: русские, украинские

General
Unique ID : 189806781443001777529553977506904054491 (0x8ECB74D6D1C4DB41A219B0AD72D69ADB)
Complete name : Нико. Путь к звёздам.2008.BDRip.1080p.Rus.Eng.mkv
Format : Matroska
Format version : Version 2
File size : 4.37 GiB
Duration : 1h 20mn
Overall bit rate : 7 751 Kbps
Movie name : Нико: Путь к звёздам.2008
Encoded date : UTC 2012-02-20 10:45:54
Writing application : mkvmerge v5.3.0 ('I could have danced') built on Feb 9 2012 10:38:07
Writing library : libebml v1.2.3 + libmatroska v1.3.0

Video
ID : 1
Format : AVC
Format/Info : Advanced Video Codec
Format profile : High@L4.1
Format settings, CABAC : Yes
Format settings, ReFrames : 4 frames
Codec ID : V_MPEG4/ISO/AVC
Duration : 1h 20mn
Bit rate : 6 860 Kbps
Width : 1 920 pixels
Height : 1 032 pixels
Display aspect ratio : 1.860
Frame rate mode : Variable
Frame rate : 23.976 fps
Color space : YUV
Chroma subsampling : 4:2:0
Bit depth : 8 bits
Scan type : Progressive
Bits/(Pixel*Frame) : 0.144
Stream size : 3.78 GiB (86%)
Title : Rip by Boriy
Writing library : x264 core 120 r2146M bcd41db
Encoding settings : cabac=1 / ref=4 / deblock=1:0:0 / analyse=0x3:0x133 / me=umh / subme=10 / psy=1 / psy_rd=1.00:0.10 / mixed_ref=1 / me_range=32 / chroma_me=1 / trellis=2 / 8x8dct=1 / cqm=0 / deadzone=21,11 / fast_pskip=0 / chroma_qp_offset=-3 / threads=12 / sliced_threads=0 / nr=0 / decimate=1 / interlaced=0 / bluray_compat=0 / constrained_intra=0 / bframes=5 / b_pyramid=2 / b_adapt=2 / b_bias=0 / direct=3 / weightb=1 / open_gop=0 / weightp=2 / keyint=240 / keyint_min=24 / scenecut=40 / intra_refresh=0 / rc_lookahead=60 / rc=2pass / mbtree=1 / bitrate=6860 / ratetol=1.0 / qcomp=0.60 / qpmin=0 / qpmax=69 / qpstep=4 / cplxblur=20.0 / qblur=0.5 / ip_ratio=1.40 / aq=1:1.00
Default : Yes
Forced : No

Audio #1
ID : 2
Format : AC-3
Format/Info : Audio Coding 3
Mode extension : CM (complete main)
Codec ID : A_AC3
Duration : 1h 20mn
Bit rate mode : Constant
Bit rate : 448 Kbps
Channel(s) : 6 channels
Channel positions : Front: L C R, Side: L R, LFE
Sampling rate : 48.0 KHz
Bit depth : 16 bits
Compression mode : Lossy
Stream size : 259 MiB (6%)
Title : Дубляж
Language : Russian
Default : Yes
Forced : No

Audio #2
ID : 3
Format : AC-3
Format/Info : Audio Coding 3
Mode extension : CM (complete main)
Codec ID : A_AC3
Duration : 1h 20mn
Bit rate mode : Constant
Bit rate : 448 Kbps
Channel(s) : 6 channels
Channel positions : Front: L C R, Side: L R, LFE
Sampling rate : 48.0 KHz
Bit depth : 16 bits
Compression mode : Lossy
Stream size : 259 MiB (6%)
Title : Eng
Language : English
Default : No
Forced : No

Text #1
ID : 4
Format : UTF-8
Codec ID : S_TEXT/UTF8
Codec ID/Info : UTF-8 Plain Text
Language : Russian
Default : No
Forced : No

Text #2
ID : 5
Format : UTF-8
Codec ID : S_TEXT/UTF8
Codec ID/Info : UTF-8 Plain Text
Language : Ukrainian
Default : No
Forced : No

Menu
00:00:00.000 : en:
00:05:30.163 : en:
00:11:18.886 : en:
00:18:21.642 : en:
00:25:01.124 : en:
00:30:52.183 : en:
00:39:27.698 : en:
00:47:17.209 : en:
00:55:39.085 : en:
01:02:30.997 : en:
01:07:35.134 : en:
01:15:43.247 : en:



   Похожие торренты   Торрент   Размер 
В этой теме нет новых непрочитанных сообщений. Нико: Путь к звездам / Niko & The Way to the Stars / Niko - Lentajan poika (2008) BDRip от HQCLUB

244 | 21

1.45 ГБ

В этой теме нет новых непрочитанных сообщений. Нико: Путь к звездам / Niko - Lentajan poika (2008) BDRip 1080p

11 | 4

8.77 ГБ

В этой теме нет новых непрочитанных сообщений. Нико: Путь к звёздам / Niko - Lentäjän poika (2008) BDRip 720

236 | 15

2.11 ГБ

В этой теме нет новых непрочитанных сообщений. Нико 2 / Niko 2: Lentajaveljekset (2012) BDRip 1080p от Youtracker | 3D-Video

35 | 10

5.83 ГБ

В этой теме нет новых непрочитанных сообщений. Нико 2 / Niko 2: Lentajaveljekset (2012) Blu-ray 1080p от HDCLUB и Youtracker | D | 3D Video

0 | 3

21.87 ГБ

В этой теме нет новых непрочитанных сообщений. Нико 2 / Niko 2: Lentajaveljekset (2012) BDRip-AVC | iPad

5 | 3

1.31 ГБ

В этой теме нет новых непрочитанных сообщений. Нико 2 / Niko 2: Lentajaveljekset (2012) BDRip-AVC от Youtracker | D

34 | 10

1.46 ГБ




Вы не можете начинать темы
Вы не можете отвечать на сообщения
Вы не можете редактировать свои сообщения
Вы не можете удалять свои сообщения
Вы не можете добавлять вложения

Перейти:  
Для Мосгорсуда, Роскомнадзора и рекламодателей: mosgorsud-torrent[собачка]yandex.ru
 Вход
ppkBB3cker v.2 © 2008-2014 @ PPK
[ Time : 0.030s | 16 Queries | GZIP : Off ]
CGP output time : 0.018s | 5 Queries | GZIP : Off

Торрент трекер RUTOR.IN, Не можете зайти на rutor.org? Какой новый адрес рутор? Какое зеркало рутор? Не работает rutor.org и зеркала? Тогда наш торрент специально для вас. Rutor.in неофициальное зеркало rutor. В случае если у Вас заблокирован rutor или вдруг Вы не можете на него зайти, то Вы без труда сможете скачать бесплатно и без рекламы последние новинки кино, игр, сериалов и прочего у нас, на Rutor.in. Не нужно использовать прокси, чтобы зайти на рутор, достаточно воспользоваться нашим ресурсом. Все новые фильмы, игры, сериалы, книги и музыка за 2013 и 2014 годы через торрент бесплатно. Скачивайте фильмы в хорошем качестве, игры для пк, xbox, playstation без регистрации. У нас вы найдете новые Зарубежные сериалы и Русские сериалы 2013, 2014, 2015 годов. Оставайтесь с нами, качайте любимые фильмы, игры, сериалы, книги и музыку.