img image001 image001 image001 image001 image001 image001 image001 image001 image001 image001 image001 image001 image001 image001 image001

Planets Sun Sun Sun
Статистика раздачи
Автор: Снежана | Размер: 4.34 ГБ | Добавлен: 27 июл 2013
Раздают: 5    Качают: 2
Скачать торрент
Скачать торрент
Описание торрента

СообщениеДобавлено: 27 июл 2013 

Монстр в Париже / Un monstre a Paris / A Monster in Paris (2011) DVD5



Информация о фильме
Название: Монстр в Париже
Оригинальное название: Un monstre a Paris / A Monster in Paris
Год выхода: 2011
Жанр: мультфильм, анимация, фэнтези, комедия, приключения, музыка
Режиссер: Бибо Бержерон
Роли озвучивают: Ванесса Паради, Матье Шедид, Гад Эльмалех, Франсуа Клюзе, Людивин Санье, Жюли Ферье, Бруно Саломон, Себастьян Дежу, Филип Петью, Боб Бэлабан

О фильме: Город влюбленных. Тысяча девятьсот десятый год. Ужасный монстр, напоминающий гигантское насекомое, нагоняет страх на всю Францию. Застенчивый киномеханик и неутомимый изобретатель начинают охоту на него. В этой погоне они знакомятся со звездой кабаре, сумасшедшим ученым и его умной обезьянкой и, наконец, самим монстром, который оказывается совсем не страшным. Теперь безобидное, как блоха, чудовище ищет у своих новых друзей защиты от вредного начальника городской полиции.


Страна: Франция
Студия: Europa Corp.
Время: 01:26:20
Перевод: Профессиональный (дублированный)

Файл
Кодек: MPEG-2
Качество: DVD5 (источник: DVD9 R5) | Сжатый
Видео: 720x576@1024x576 (PAL 16:9), 23 fps, 6348 kbps
Аудио #1: Dolby AC3, 6 channel, 384 kbps | Оригинал
Аудио #2: Dolby AC3, 6 channel, 384 Kbps | Русский
Субтитры: Русские
Меню: Русское, статичное, озвученное
Семпл: скачать

Скриншоты

Title: Bob
Size: 4.34 Gb ( 4 546 200 KBytes ) - DVD-5
Enabled regions: 1, 2, 3, 4, 5, 6, 7, 8

VTS_01 :
Play Length: 01:26:20
Video: PAL 16:9 (720x576) VBR, Auto Pan&Scan
Audio:
Russian (Dolby AC3, 6 ch)
Russian (Dolby AC3, 2 ch)
English (Dolby AC3, 6 ch)
Subtitles:
Russian

VTS_02 :
Play Length:
Video: PAL 16:9 (720x576) VBR, Auto Pan&Scan
Audio:
Russian (Dolby AC3, 2 ch)

VTS_03 :
Play Length:
Video: PAL 16:9 (720x576) VBR, Auto Pan&Scan
Audio:
Russian (Dolby AC3, 2 ch)

VTS_04 :
Play Length: 00:00:01
Video: PAL 16:9 (720x576) VBR, Auto Pan&Scan
Audio:
Not specified (Dolby AC3, 2 ch)
General
Complete name : VTS_01_1.VOB
Format : MPEG-PS
File size : 1 024 MiB
Duration : 19mn 43s
Overall bit rate : 7 261 Kbps

Video
ID : 224 (0xE0)
Format : MPEG Video
Format version : Version 2
Format profile : Main@Main
Format settings, BVOP : Yes
Format settings, Matrix : Custom
Duration : 19mn 43s
Bit rate mode : Variable
Bit rate : 6 348 Kbps
Width : 720 pixels
Height : 576 pixels
Display aspect ratio : 2.35:1
Frame rate : 25.000 fps
Standard : PAL
Color space : YUV
Chroma subsampling : 4:2:0
Bit depth : 8 bits
Compression mode : Lossy
Bits/(Pixel*Frame) : 0.612
Stream size : 895 MiB (87%)

Audio #1
ID : 189 (0xBD)-128 (0x80)
Format : AC-3
Format/Info : Audio Coding 3
Mode extension : CM (complete main)
Muxing mode : DVD-Video
Duration : 19mn 42s
Bit rate mode : Constant
Bit rate : 384 Kbps
Channel(s) : 6 channels
Channel positions : Front: L C R, Side: L R, LFE
Sampling rate : 48.0 KHz
Bit depth : 16 bits
Compression mode : Lossy
Stream size : 54.1 MiB (5%)

Audio #2
ID : 189 (0xBD)-130 (0x82)
Format : AC-3
Format/Info : Audio Coding 3
Mode extension : CM (complete main)
Muxing mode : DVD-Video
Duration : 19mn 42s
Bit rate mode : Constant
Bit rate : 384 Kbps
Channel(s) : 6 channels
Channel positions : Front: L C R, Side: L R, LFE
Sampling rate : 48.0 KHz
Bit depth : 16 bits
Compression mode : Lossy
Stream size : 54.1 MiB (5%)

Menu



   Похожие торренты   Торрент   Размер 
В этой теме нет новых непрочитанных сообщений. Монстр в Париже / Un monstre a Paris / A Monster in Paris (2011) BDRip от HELLYWOOD

33 | 7

1.45 ГБ

В этой теме нет новых непрочитанных сообщений. Монстр в Париже / Un monstre a Paris / A Monster in Paris (2011) BDRip 1080p

53 | 2

4.37 ГБ

В этой теме нет новых непрочитанных сообщений. Монстр в Париже / Un monstre a Paris / A Monster in Paris (2011) BDRip от HQCLUB

69 | 5

1.45 ГБ

В этой теме нет новых непрочитанных сообщений. Монстр в Париже / Un monstre a Paris / A Monster in Paris (2011) DVDRip | КПК от Generalfilm

40 | 2

263.08 МБ

В этой теме нет новых непрочитанных сообщений. Монстр в Париже / Un monstre a Paris / A Monster in Paris (2011) BDRip-AVC от HQ-ViDEO

163 | 9

2.18 ГБ

В этой теме нет новых непрочитанных сообщений. Монстр в Париже / Un monstre a Paris / A Monster in Paris (2011) Blu-Ray | Лицензия

13 | 3

26.54 ГБ

В этой теме нет новых непрочитанных сообщений. Монстр в Париже / Un monstre à Paris / A Monster in Paris (2011) BDRip 720p | Лицензия

137 | 4

5.33 ГБ




Вы не можете начинать темы
Вы не можете отвечать на сообщения
Вы не можете редактировать свои сообщения
Вы не можете удалять свои сообщения
Вы не можете добавлять вложения

Перейти:  
Для Мосгорсуда, Роскомнадзора и рекламодателей: mosgorsud-torrent[собачка]yandex.ru
 Вход
ppkBB3cker v.2 © 2008-2014 @ PPK
[ Time : 0.034s | 15 Queries | GZIP : Off ]

Торрент трекер RUTOR.IN, Не можете зайти на rutor.org? Какой новый адрес рутор? Какое зеркало рутор? Не работает rutor.org и зеркала? Тогда наш торрент специально для вас. Rutor.in неофициальное зеркало rutor. В случае если у Вас заблокирован rutor или вдруг Вы не можете на него зайти, то Вы без труда сможете скачать бесплатно и без рекламы последние новинки кино, игр, сериалов и прочего у нас, на Rutor.in. Не нужно использовать прокси, чтобы зайти на рутор, достаточно воспользоваться нашим ресурсом. Все новые фильмы, игры, сериалы, книги и музыка за 2013 и 2014 годы через торрент бесплатно. Скачивайте фильмы в хорошем качестве, игры для пк, xbox, playstation без регистрации. У нас вы найдете новые Зарубежные сериалы и Русские сериалы 2013, 2014, 2015 годов. Оставайтесь с нами, качайте любимые фильмы, игры, сериалы, книги и музыку.
cron