img image001 image001 image001 image001 image001 image001 image001 image001 image001 image001 image001 image001 image001 image001 image001

Planets Sun Sun Sun
Статистика раздачи
Автор: Снежана | Размер: 4.19 ГБ | Добавлен: 27 июл 2013
Раздают: 0    Качают: 2
Скачать торрент
Скачать торрент
Описание торрента

СообщениеДобавлено: 27 июл 2013 

Медвежонок Винни и его друзья / Winnie the Pooh (2011) DVD5



Информация о мультфильме
Название: Медвежонок Винни и его друзья
Оригинальное название: Winnie the Pooh
Год выхода: 2011
Слоган: «A new sleuth for the 21st Century»
Жанр: мультфильм, мюзикл, семейный
Режиссер: Стивен Дж. Андерсон, Дон Холл
Роли озвучивали: Джим Каммингс, Крэйг Фергюсон, Джон Клиз, Том Кенни, Бад Лакки, Трэвис Оутс, Джек Болтер, Кристен Андерсон-Лопес
Роли дублировали: Виктор Костецкий, Владимир Баранов, Дмитрий Лагачев, Андрей Матвеев, Мария Соснякова

Описание: Когда Ослик Ушастик теряет свой хвост, Филин отправляет друзей (Винни, Тигрулю, Кролика, Хрюню, Кенгу и Крошку Ру) помочь бедолаге найти пропажу, а заодно — спасти Кристофера Робина от таинственного Яскорра. А ведь медвежонок Винни, собирался всего лишь отыскать где-нибудь немного мёда, чтобы слегка подкрепиться, и даже не предполагал, что его ждёт такой суматошный день!


Страна: США
Студия: Walt Disney Pictures
Время: 01:03:04
Перевод: Профессиональный (дублированный)

Файл
Кодек: MPEG-2
Качество: DVD5
Видео: 720x576@1024x576 (PAL 16:9), ≈7785 kbps, 23 fps
Аудио #1: AC3, 6 ch, 384 kbps | Оригинал
Аудио #2: AC3, 6 ch, 384 kbps | Русский
Аудио #3: AC3, 6 ch, 384 kbps | Украинский
Субтитры: Русские, Английские, Украинские

Скриншоты


Title: Винни Пух
Size: 4.19 Gb ( 4 394 878,00 KBytes ) - DVD-5
Enabled regions: 1, 2, 3, 4, 5, 6, 7, 8

VTS_01 :
Play Length: 00:00:10
Video: PAL 16:9 (720x576) VBR, Auto Letterboxed
Audio:
Not specified (Dolby AC3, 6 ch)

VTS_02 :
Play Length: 01:03:04
Video: PAL 16:9 (720x576) VBR, Auto Letterboxed
Audio:
English (Dolby AC3, 6 ch)
Russian (Dolby AC3, 6 ch)
Ukrainian (Dolby AC3, 6 ch)
Subtitles:
English
Russian
Ukrainian
Общее
Полное имя : VTS_02_1.VOB
Формат : MPEG-PS
Размер файла : 1000 Мбайт
Продолжительность : 15 м.
Режим общего битрейта : Переменный
Общий поток : 9118 Кбит/сек

Видео
Идентификатор : 224 (0xE0)
Формат : MPEG Video
Версия формата : Version 2
Профиль формата : Main@Main
Параметр BVOP формата : Да
Параметр матрицы формата : Выборочная
Продолжительность : 15 м.
Вид битрейта : Переменный
Битрейт : 7785 Кбит/сек
Максимальный битрейт : 8600 Кбит/сек
Ширина : 720 пикселей
Высота : 576 пикселей
Соотношение сторон : 16:9
Частота кадров : 25,000 кадров/сек
Стандарт вещания : PAL
Цветовое пространство : YUV
Субдискретизация насыщенности : 4:2:0
Битовая глубина : 8 бит
Тип развёртки : Чересстрочная
Порядок развёртки : Верхнее поле первое
Метод сжатия : С потерями
Бит/(Пиксели*Кадры) : 0.751
Размер потока : 854 Мбайт (85%)

Аудио #1
Идентификатор : 189 (0xBD)-128 (0x80)
Формат : AC-3
Формат/Информация : Audio Coding 3
Расширение режима : CM (complete main)
Режим смешивания : DVD-Video
Продолжительность : 15 м.
Вид битрейта : Постоянный
Битрейт : 384 Кбит/сек
Каналы : 6 каналов
Расположение каналов : Front: L C R, Side: L R, LFE
Частота : 48,0 КГц
Битовая глубина : 16 бит
Метод сжатия : С потерями
Размер потока : 42,1 Мбайт (4%)

Аудио #2
Идентификатор : 189 (0xBD)-129 (0x81)
Формат : AC-3
Формат/Информация : Audio Coding 3
Расширение режима : CM (complete main)
Режим смешивания : DVD-Video
Продолжительность : 15 м.
Вид битрейта : Постоянный
Битрейт : 384 Кбит/сек
Каналы : 6 каналов
Расположение каналов : Front: L C R, Side: L R, LFE
Частота : 48,0 КГц
Битовая глубина : 16 бит
Метод сжатия : С потерями
Размер потока : 42,1 Мбайт (4%)

Аудио #3
Идентификатор : 189 (0xBD)-130 (0x82)
Формат : AC-3
Формат/Информация : Audio Coding 3
Расширение режима : CM (complete main)
Режим смешивания : DVD-Video
Продолжительность : 15 м.
Вид битрейта : Постоянный
Битрейт : 384 Кбит/сек
Каналы : 6 каналов
Расположение каналов : Front: L C R, Side: L R, LFE
Частота : 48,0 КГц
Битовая глубина : 16 бит
Метод сжатия : С потерями
Размер потока : 42,1 Мбайт (4%)

Текст #1
Идентификатор : 189 (0xBD)-32 (0x20)
Формат : RLE
Формат/Информация : Run-length encoding
Режим смешивания : DVD-Video

Текст #2
Идентификатор : 189 (0xBD)-33 (0x21)
Формат : RLE
Формат/Информация : Run-length encoding
Режим смешивания : DVD-Video

Текст #3
Идентификатор : 189 (0xBD)-34 (0x22)
Формат : RLE
Формат/Информация : Run-length encoding
Режим смешивания : DVD-Video

Текст #4
Идентификатор : 189 (0xBD)-35 (0x23)
Формат : RLE
Формат/Информация : Run-length encoding
Режим смешивания : DVD-Video

Текст #5
Идентификатор : 189 (0xBD)-36 (0x24)
Формат : RLE
Формат/Информация : Run-length encoding
Режим смешивания : DVD-Video

Текст #6
Идентификатор : 189 (0xBD)-37 (0x25)
Формат : RLE
Формат/Информация : Run-length encoding
Режим смешивания : DVD-Video

Меню



   Похожие торренты   Торрент   Размер 
В этой теме нет новых непрочитанных сообщений. Медвежонок Винни и его друзья / Winnie the Pooh (2011) MAC

18 | 3

829.66 МБ

В этой теме нет новых непрочитанных сообщений. Медвежонок Винни и его друзья / Winnie the Pooh (2011) DVD9

1 | 2

4.42 ГБ

В этой теме нет новых непрочитанных сообщений. Медвежонок Винни и его друзья / Winnie the Pooh (2011) RePack

26 | 3

294.89 МБ

В этой теме нет новых непрочитанных сообщений. Медвежонок Винни и его друзья / Winnie the Pooh (2011) Blur-Ray

5 | 3

29.29 ГБ

В этой теме нет новых непрочитанных сообщений. Медвежонок Винни и его друзья / Winnie the Pooh (2011) BDRip 720p

5 | 3

2.32 ГБ

В этой теме нет новых непрочитанных сообщений. Медвежонок Винни и его друзья / Winnie the Pooh (2011) BDRip от HELLYWOOD

37 | 6

1.43 ГБ

В этой теме нет новых непрочитанных сообщений. Медвежонок Винни и его друзья / Winnie the Pooh (2011) BDRip от HQCLUB

4 | 2

1.09 ГБ




Вы не можете начинать темы
Вы не можете отвечать на сообщения
Вы не можете редактировать свои сообщения
Вы не можете удалять свои сообщения
Вы не можете добавлять вложения

Перейти:  
Для Мосгорсуда, Роскомнадзора и рекламодателей: mosgorsud-torrent[собачка]yandex.ru
 Вход
ppkBB3cker v.2 © 2008-2014 @ PPK
[ Time : 0.066s | 15 Queries | GZIP : Off ]

Торрент трекер RUTOR.IN, Не можете зайти на rutor.org? Какой новый адрес рутор? Какое зеркало рутор? Не работает rutor.org и зеркала? Тогда наш торрент специально для вас. Rutor.in неофициальное зеркало rutor. В случае если у Вас заблокирован rutor или вдруг Вы не можете на него зайти, то Вы без труда сможете скачать бесплатно и без рекламы последние новинки кино, игр, сериалов и прочего у нас, на Rutor.in. Не нужно использовать прокси, чтобы зайти на рутор, достаточно воспользоваться нашим ресурсом. Все новые фильмы, игры, сериалы, книги и музыка за 2013 и 2014 годы через торрент бесплатно. Скачивайте фильмы в хорошем качестве, игры для пк, xbox, playstation без регистрации. У нас вы найдете новые Зарубежные сериалы и Русские сериалы 2013, 2014, 2015 годов. Оставайтесь с нами, качайте любимые фильмы, игры, сериалы, книги и музыку.
cron