img image001 image001 image001 image001 image001 image001 image001 image001 image001 image001 image001 image001 image001 image001 image001

Planets Sun Sun Sun
Статистика раздачи
Автор: Снежана | Размер: 21.16 ГБ | Добавлен: 27 июл 2013
Раздают: 2    Качают: 7
Скачать торрент
Скачать торрент
Описание торрента

СообщениеДобавлено: 27 июл 2013 

#77

Информация о фильме
Название: Приключения Тинтина: Тайна Единорога
Оригинальное название: The Adventures of Tintin
Год выхода: 2011
Жанр: мультфильм, боевик, детектив, приключения, семейный
Режиссер: Стивен Спилберг
В ролях: Джейми Белл, Энди Серкис, Дэниэл Крэйг, Саймон Пегг, Кэри Элвис, Тоби Джонс, Ник Фрост, Себастьян Роше, Маккензи Крук, Тони Карран

О фильме: Главный герой — молодой газетный репортёр Тинтин. Благодаря своей профессии он путешествует по всему миру и становится участником увлекательных приключений.



Выпущено: США / Новая Зеландия, Columbia Pictures
Продолжительность: 01:46:51
Озвучивание: Дублированное [лицензия]

Файл
Формат: MKV
Качество: BDRemux | Лицензия
Видео: MPEG-4 AVC, 25.1 Мбит/с, 1920x1080, 23.976 кадр/с
Аудио: Русский (AC3, 6 ch, 448 Кбит/с), английский (DTS-HD МА, 8 ch, 2710 Кбит/с)
Размер: 21.16 ГБ
Субтитры: Русские, английские
Скачать: Сэмпл

Общее
Уникальный идентификатор : 180487370592622033140052283098334351143 (0x87C89A68BF1A682E873B6A00DB49CF27)
Полное имя : Z:BLU-RAY REMUXPrikljuchenija.Tintina.Tajna.edinoroga.2011.MPEG-4-AVC.BluRay-Remux(1080p).mkv
Формат : Matroska
Размер файла : 21,2 Гбайт
Продолжительность : 1 ч. 46 м.
Общий поток : 28,3 Мбит/сек
Название фильма : --SCHUMAHER--
Дата кодирования : UTC 2012-02-26 15:50:10
Программа кодирования : mkvmerge v5.3.0 ('I could have danced') built on Feb 9 2012 10:38:07
Библиотека кодирования : libebml v1.2.3 + libmatroska v1.3.0

Видео
Идентификатор : 1
Формат : AVC
Формат/Информация : Advanced Video Codec
Профиль формата : High@L4.1
Параметр CABAC формата : Да
Параметр ReFrames формата : 2 кадры
Параметры GOP формата : M=2, N=20
Идентификатор кодека : V_MPEG4/ISO/AVC
Продолжительность : 1 ч. 46 м.
Вид битрейта : Переменный
Битрейт : 25,7 Мбит/сек
Ширина : 1920 пикс.
Высота : 1080 пикс.
Соотношение сторон : 16:9
Частота кадров : 23,976 кадр/сек
Цветовое пространство : YUV
Подвыборка цветности : 4:2:0
Битовая глубина : 8 бит
Тип развёртки : Прогрессивная
Бит/(Пиксели*Кадры) : 0.518
Размер потока : 19,2 Гбайт (91%)
Язык : English

Аудио #1
Идентификатор : 2
Формат : AC-3
Формат/Информация : Audio Coding 3
Расширение режима : CM (complete main)
Идентификатор кодека : A_AC3
Продолжительность : 1 ч. 46 м.
Вид битрейта : Постоянный
Битрейт : 448 Кбит/сек
Канал(ы) : 6 канала(ов)
Расположение каналов : Front: L C R, Side: L R, LFE
Частота : 48,0 КГц
Битовая глубина : 16 бит
Метод сжатия : С потерями
Размер потока : 342 Мбайт (2%)
Язык : Russian

Аудио #2
Идентификатор : 3
Формат : DTS
Формат/Информация : Digital Theater Systems
Профиль формата : MA / Core
Идентификатор кодека : A_DTS
Продолжительность : 1 ч. 46 м.
Вид битрейта : Переменный
Битрейт : 1597 Кбит/сек / 1510 Кбит/сек
Канал(ы) : 8 канала(ов) / 6 канала(ов)
Расположение каналов : Front: L C R, Side: L R, Back: L R, LFE / Front: L C R, Side: L R, LFE
Частота : 48,0 КГц
Битовая глубина : 16 бит
Метод сжатия : Без потерь / Lossy
Язык : English

Текст #1
Идентификатор : 4
Формат : UTF-8
Идентификатор кодека : S_TEXT/UTF8
Идентификатор кодека/Информация : UTF-8 Plain Text
Язык : Russian

Текст #2
Идентификатор : 5
Формат : UTF-8
Идентификатор кодека : S_TEXT/UTF8
Идентификатор кодека/Информация : UTF-8 Plain Text
Язык : English

Меню
00:00:00.000 : en:Sir James
00:05:39.297 : en:M's Remains
00:12:12.314 : en:Paying The Piper
00:17:11.363 : en:Corrupt Or Kill
00:25:36.868 : en:The Toughest Training
00:32:37.580 : en:Evelyn Tremble
00:37:55.314 : en:A New Identity
00:42:29.838 : en:Mata Bond
00:50:52.507 : en:Spy School
00:56:27.217 : en:Stealing The Films
01:02:19.610 : en:Game Preparations
01:11:58.981 : en:Le Chiffre
01:20:03.965 : en:Mind Torture
01:27:30.995 : en:Smersh Headquarters
01:34:12.813 : en:Casino Royale
01:40:30.482 : en:End Credits


Скриншоты





   Похожие торренты   Торрент   Размер 
В этой теме нет новых непрочитанных сообщений. Приключения Тинтина: Тайна Единорога / The Adventures of Tintin (2011) HDRip | Лицензия

44 | 9

704.75 МБ

В этой теме нет новых непрочитанных сообщений. Приключения Тинтина: Тайна Единорога / The Adventures of Tintin (2011) DVD9 | Лицензия

1 | 1

7.46 ГБ

В этой теме нет новых непрочитанных сообщений. Приключения Тинтина: Тайна Единорога / The Adventures of Tintin (2011) BDRip от HQ-ViDEO | Лицензия

179 | 24

2.18 ГБ

В этой теме нет новых непрочитанных сообщений. Приключения Тинтина: Тайна Единорога / The Adventures of Tintin (2011) BDRip 1080p | Лицензия

14 | 5

10.18 ГБ

В этой теме нет новых непрочитанных сообщений. Приключения Тинтина: Тайна Единорога / The Adventures of Tintin (2011) BDRip 720p | Лицензия

0 | 3

5.8 ГБ

В этой теме нет новых непрочитанных сообщений. Приключения Тинтина: Тайна Единорога / The Adventures of Tintin (2011) BDRip-AVC от HQ-ViDEO | Лицензия

109 | 6

2.18 ГБ

В этой теме нет новых непрочитанных сообщений. Приключения Тинтина: Тайна Единорога / The Adventures of Tintin (2011) BDRip от HELLYWOOD | лицензия

9 | 8

2.18 ГБ




Вы не можете начинать темы
Вы не можете отвечать на сообщения
Вы не можете редактировать свои сообщения
Вы не можете удалять свои сообщения
Вы не можете добавлять вложения

Перейти:  
Для Мосгорсуда, Роскомнадзора и рекламодателей: mosgorsud-torrent[собачка]yandex.ru
 Вход
ppkBB3cker v.2 © 2008-2014 @ PPK
[ Time : 0.035s | 15 Queries | GZIP : Off ]

cron