img image001 image001 image001 image001 image001 image001 image001 image001 image001 image001 image001 image001 image001 image001 image001

Planets Sun Sun Sun
Статистика раздачи
Автор: Снежана | Размер: 19.73 ГБ | Добавлен: 27 июл 2013
Раздают: 1    Качают: 2
Скачать торрент
Скачать торрент
Описание торрента

СообщениеДобавлено: 27 июл 2013 

#77

Информация о фильме:
Название: Делай ноги 2
Оригинальное название: Happy Feet Two
Год выхода: 2011
Жанр: мультфильм, комедия, семейный, музыка
Режиссер: Джордж Миллер
В ролях: Элайджа Вуд, Робин Уильямс, Хэнк Азария, Пинк, Брэд Питт, Мэтт Дэймон, София Вергара, Карлос Алазраки, Ломбардо Бойяр, Джефф Гарсиа и др.

О фильме: Неутомимый пингвин Мамбл, некогда покоривший своим блестящим танцорским талантом целое племя императорских пингвинов, стал отцом. Его малыш — Эрик, в точности такой же свободолюбивый и независимый, как и папа, но в своих амбициях и авантюрах, несмотря на свой юный возраст, уже способен дать хорошую фору отцу и всем окружающим.



Выпущено: Австралия, Warner Bros. Pictures
Продолжительность: 01:39:29
Озвучивание: Дублированное [лицензия]

Файл:
Формат: MKV
Качество: BDRemux | Лицензия
Видео: MPEG-4 AVC, 25.6 Мбит/с, 1920x1080, 23.976 кадр/с
Аудио: Русский (AC3, 6 ch, 448 Кбит/с), английский (DTS-HD МА, 6 ch, 2311 Кбит/с)
Размер: 19.73 ГБ
Субтитры: Английские
Скачать: Сэмпл

Общее
Уникальный идентификатор : 237111823127099311610954987316257827130 (0xB2621376E3EF299F9AE0B4B3F235293A)
Полное имя : Z:BLU-RAY REMUXDelaj.nogi-2.2011.MPEG-4-AVC.BluRay-Remux(1080p).mkv
Формат : Matroska
Размер файла : 19,7 Гбайт
Продолжительность : 1 ч. 39 м.
Общий поток : 28,4 Мбит/сек
Название фильма : --SCHUMAHER--
Дата кодирования : UTC 2012-02-26 16:53:56
Программа кодирования : mkvmerge v5.3.0 ('I could have danced') built on Feb 9 2012 10:38:07
Библиотека кодирования : libebml v1.2.3 + libmatroska v1.3.0

Видео
Идентификатор : 1
Формат : AVC
Формат/Информация : Advanced Video Codec
Профиль формата : High@L4.1
Параметр CABAC формата : Да
Параметр ReFrames формата : 2 кадры
Параметры GOP формата : M=1, N=20
Идентификатор кодека : V_MPEG4/ISO/AVC
Продолжительность : 1 ч. 39 м.
Вид битрейта : Переменный
Битрейт : 25,3 Мбит/сек
Ширина : 1920 пикс.
Высота : 1080 пикс.
Соотношение сторон : 16:9
Частота кадров : 23,976 кадр/сек
Цветовое пространство : YUV
Подвыборка цветности : 4:2:0
Битовая глубина : 8 бит
Тип развёртки : Прогрессивная
Бит/(Пиксели*Кадры) : 0.509
Размер потока : 17,6 Гбайт (89%)
Язык : English

Аудио #1
Идентификатор : 2
Формат : AC-3
Формат/Информация : Audio Coding 3
Расширение режима : CM (complete main)
Идентификатор кодека : A_AC3
Продолжительность : 1 ч. 39 м.
Вид битрейта : Постоянный
Битрейт : 448 Кбит/сек
Канал(ы) : 6 канала(ов)
Расположение каналов : Front: L C R, Side: L R, LFE
Частота : 48,0 КГц
Битовая глубина : 16 бит
Метод сжатия : С потерями
Размер потока : 319 Мбайт (2%)
Язык : Russian

Аудио #2
Идентификатор : 3
Формат : DTS
Формат/Информация : Digital Theater Systems
Профиль формата : MA / Core
Идентификатор кодека : A_DTS
Продолжительность : 1 ч. 39 м.
Вид битрейта : Переменный
Битрейт : 2059 Кбит/сек / 1510 Кбит/сек
Канал(ы) : 6 канала(ов)
Расположение каналов : Front: L C R, Side: L R, LFE
Частота : 48,0 КГц
Битовая глубина : 16 бит
Метод сжатия : Без потерь / Lossy
Язык : English

Текст #1
Идентификатор : 4
Формат : UTF-8
Идентификатор кодека : S_TEXT/UTF8
Идентификатор кодека/Информация : UTF-8 Plain Text
Язык : English

Текст #2
Идентификатор : 5
Формат : UTF-8
Идентификатор кодека : S_TEXT/UTF8
Идентификатор кодека/Информация : UTF-8 Plain Text
Заголовок : SDH
Язык : English

Меню
00:00:00.000 : en:
00:11:01.577 : en:
00:19:03.183 : en:
00:29:16.755 : en:
00:39:12.349 : en:
00:49:39.726 : en:
00:58:26.461 : en:
01:09:52.104 : en:
01:19:59.920 : en:
01:30:29.924 : en:
01:39:29.630 : en:


Скриншоты


/screens]



   Похожие торренты   Торрент   Размер 
В этой теме нет новых непрочитанных сообщений. Делай ноги 2 / Happy Feet Two (2011) HDRip | Лицензия

18 | 4

689.26 МБ

В этой теме нет новых непрочитанных сообщений. Делай ноги 2 / Happy Feet Two (2011) HDRip | Лицензия

266 | 11

1.37 ГБ

В этой теме нет новых непрочитанных сообщений. Делай ноги / Happy Feet (2006) Blu-Ray | Лицензия

4 | 6

21.14 ГБ

В этой теме нет новых непрочитанных сообщений. OST - Делай ноги 2 / Happy Feet Two from AGR (2011) MP3

3 | 4

169.39 МБ

В этой теме нет новых непрочитанных сообщений. Делай ноги 2 / Happy Feet Two (2011) DVD5

2 | 3

4.35 ГБ

В этой теме нет новых непрочитанных сообщений. Делай ноги 2 / Happy Feet Two (2011) DVDRip | КПК от Generalfilm

3 | 3

292.09 МБ

В этой теме нет новых непрочитанных сообщений. Делай ноги 2 / Happy Feet 2 in 3D (2011) HDRip | тизер

29 | 4

53.03 МБ




Вы не можете начинать темы
Вы не можете отвечать на сообщения
Вы не можете редактировать свои сообщения
Вы не можете удалять свои сообщения
Вы не можете добавлять вложения

Перейти:  
Для Мосгорсуда, Роскомнадзора и рекламодателей: mosgorsud-torrent[собачка]yandex.ru
 Вход
ppkBB3cker v.2 © 2008-2014 @ PPK
[ Time : 0.059s | 14 Queries | GZIP : Off ]

Торрент трекер RUTOR.IN, Не можете зайти на rutor.org? Какой новый адрес рутор? Какое зеркало рутор? Не работает rutor.org и зеркала? Тогда наш торрент специально для вас. Rutor.in неофициальное зеркало rutor. В случае если у Вас заблокирован rutor или вдруг Вы не можете на него зайти, то Вы без труда сможете скачать бесплатно и без рекламы последние новинки кино, игр, сериалов и прочего у нас, на Rutor.in. Не нужно использовать прокси, чтобы зайти на рутор, достаточно воспользоваться нашим ресурсом. Все новые фильмы, игры, сериалы, книги и музыка за 2013 и 2014 годы через торрент бесплатно. Скачивайте фильмы в хорошем качестве, игры для пк, xbox, playstation без регистрации. У нас вы найдете новые Зарубежные сериалы и Русские сериалы 2013, 2014, 2015 годов. Оставайтесь с нами, качайте любимые фильмы, игры, сериалы, книги и музыку.