img image001 image001 image001 image001 image001 image001 image001 image001 image001 image001 image001 image001 image001 image001 image001

Planets Sun Sun Sun
Статистика раздачи
Автор: Снежана | Размер: 4.38 ГБ | Добавлен: 27 июл 2013
Раздают: 429    Качают: 21
Скачать торрент
Скачать торрент
Описание торрента

СообщениеДобавлено: 27 июл 2013 

#77

Информация о фильме
Название: Рождественская история
Оригинальное название: A Christmas Carol
Год выхода: 2009
Жанр: фэнтези, драма, комедия, семейный, мультфильм
Режиссер: Роберт Земекис
В ролях: Джим Керри, Стив Валентайн, Дэрил Сабара, Сэйдж Райан, Эмбер Гейни Миде, Райан Очоа, Бобби Пейдж, Рон Боттитта, Сэмми Ханратти, Джулиан Холлоуэй

О фильме:
Это викторианская поучительная история о старом и ожесточившемся скупердяе Эбенезере Скрудже, который в течение одной ночи переживает испытание глубокого очищения. Мистер Скрудж - финансист/денежный меняла, который посвятил всю свою жизнь накоплению богатства. Он презирает всё, кроме денег, включая дружбу, любовь и рождественские праздники.



Выпущено: США
Продолжительность: 01:35:48
Перевод: Дублированный + Оригинал

Файл
Кодек: H264
Качество: BDRip 1080p
Видео: 1920x800, 5256 Kbps, 23.976 fps
Аудио #1: AC-3, 6 ch, 640 kbps (Rus)
Аудио #2: AC-3, 6 ch, 640 kbps (Eng)
Cубтитры: русские, английские

General
Unique ID : 234121684829495317270997142041339089200 (0xB02232439F98D2BC8D900DD91B37D130)
Complete name : Рождественская история.2009.BDRip.1080p.Rus.Eng.mkv
Format : Matroska
Format version : Version 2
File size : 4.38 GiB
Duration : 1h 35mn
Overall bit rate : 6 538 Kbps
Movie name : Рождественская история.2009
Encoded date : UTC 2012-03-06 12:19:38
Writing application : mkvmerge v5.3.0 ('I could have danced') built on Feb 9 2012 10:38:07
Writing library : libebml v1.2.3 + libmatroska v1.3.0

Video
ID : 1
Format : AVC
Format/Info : Advanced Video Codec
Format profile : High@L4.1
Format settings, CABAC : Yes
Format settings, ReFrames : 5 frames
Codec ID : V_MPEG4/ISO/AVC
Duration : 1h 35mn
Bit rate : 5 256 Kbps
Width : 1 920 pixels
Height : 800 pixels
Display aspect ratio : 2.40:1
Frame rate mode : Variable
Frame rate : 23.976 fps
Color space : YUV
Chroma subsampling : 4:2:0
Bit depth : 8 bits
Scan type : Progressive
Bits/(Pixel*Frame) : 0.143
Stream size : 3.43 GiB (78%)
Title : Rip by Boriy
Writing library : x264 core 120 r2146M bcd41db
Encoding settings : cabac=1 / ref=5 / deblock=1:0:0 / analyse=0x3:0x133 / me=umh / subme=10 / psy=1 / psy_rd=1.00:0.10 / mixed_ref=1 / me_range=32 / chroma_me=1 / trellis=2 / 8x8dct=1 / cqm=0 / deadzone=21,11 / fast_pskip=0 / chroma_qp_offset=-3 / threads=12 / sliced_threads=0 / nr=0 / decimate=1 / interlaced=0 / bluray_compat=0 / constrained_intra=0 / bframes=5 / b_pyramid=2 / b_adapt=2 / b_bias=0 / direct=3 / weightb=1 / open_gop=0 / weightp=2 / keyint=240 / keyint_min=24 / scenecut=40 / intra_refresh=0 / rc_lookahead=60 / rc=2pass / mbtree=1 / bitrate=5256 / ratetol=1.0 / qcomp=0.60 / qpmin=0 / qpmax=69 / qpstep=4 / cplxblur=20.0 / qblur=0.5 / ip_ratio=1.40 / aq=1:1.00
Language : English
Default : Yes
Forced : No

Audio #1
ID : 2
Format : AC-3
Format/Info : Audio Coding 3
Mode extension : CM (complete main)
Codec ID : A_AC3
Duration : 1h 35mn
Bit rate mode : Constant
Bit rate : 640 Kbps
Channel(s) : 6 channels
Channel positions : Front: L C R, Side: L R, LFE
Sampling rate : 48.0 KHz
Bit depth : 16 bits
Compression mode : Lossy
Stream size : 439 MiB (10%)
Title : Дубляж
Language : Russian
Default : Yes
Forced : No

Audio #2
ID : 3
Format : AC-3
Format/Info : Audio Coding 3
Mode extension : CM (complete main)
Codec ID : A_AC3
Duration : 1h 35mn
Bit rate mode : Constant
Bit rate : 640 Kbps
Channel(s) : 6 channels
Channel positions : Front: L C R, Side: L R, LFE
Sampling rate : 48.0 KHz
Bit depth : 16 bits
Compression mode : Lossy
Stream size : 439 MiB (10%)
Title : Оригинал
Language : English
Default : No
Forced : No

Text #1
ID : 4
Format : UTF-8
Codec ID : S_TEXT/UTF8
Codec ID/Info : UTF-8 Plain Text
Language : Russian
Default : No
Forced : No

Text #2
ID : 5
Format : UTF-8
Codec ID : S_TEXT/UTF8
Codec ID/Info : UTF-8 Plain Text
Language : English
Default : No
Forced : No

Menu
00:00:00.000 : en:
00:07:41.878 : en:
00:16:05.172 : en:
00:29:16.379 : en:
00:37:11.562 : en:
00:41:05.629 : en:
00:44:56.318 : en:
00:57:08.133 : en:
01:01:45.368 : en:
01:08:40.533 : en:
01:11:08.889 : en:
01:15:53.507 : en:
01:19:31.808 : en:
01:25:22.909 : en:
01:27:21.569 : en:
01:30:21.290 : en:
01:35:48.743 : en:



   Похожие торренты   Торрент   Размер 
В этой теме нет новых непрочитанных сообщений. Рождественская История / A Christmas Carol (2009) BDRip 1080p

381 | 35

8.79 ГБ

В этой теме нет новых непрочитанных сообщений. Рождественская история / A Christmas Carol (2009) BDRip 1080p | 3D-Video

25 | 3

7.42 ГБ

В этой теме нет новых непрочитанных сообщений. Рождественская история / A Christmas Carol (2009) BDRip 1080p от Youtracker | 3D-Video

67 | 8

8.98 ГБ

В этой теме нет новых непрочитанных сообщений. Рождественская история / A Christmas Carol (2009) Blu-ray Disc 1080p

30 | 7

35.43 ГБ

В этой теме нет новых непрочитанных сообщений. Рождественская история / A Christmas Carol [Все трейлеры] (2009) HDRip 1080p

0 | 2

2.33 ГБ

В этой теме нет новых непрочитанных сообщений. Рождественская история / A Christmas Carol (2009) BDRip от HQCLUB

131 | 7

1.46 ГБ

В этой теме нет новых непрочитанных сообщений. Рождественская история / A Christmas Carol (2009) BDRip-AVC от potroks | D

588 | 35

1.46 ГБ




Вы не можете начинать темы
Вы не можете отвечать на сообщения
Вы не можете редактировать свои сообщения
Вы не можете удалять свои сообщения
Вы не можете добавлять вложения

Перейти:  
Для Мосгорсуда, Роскомнадзора и рекламодателей: mosgorsud-torrent[собачка]yandex.ru
 Вход
ppkBB3cker v.2 © 2008-2014 @ PPK
[ Time : 0.021s | 14 Queries | GZIP : On ]

Торрент трекер RUTOR.IN, Не можете зайти на rutor.org? Какой новый адрес рутор? Какое зеркало рутор? Не работает rutor.org и зеркала? Тогда наш торрент специально для вас. Rutor.in неофициальное зеркало rutor. В случае если у Вас заблокирован rutor или вдруг Вы не можете на него зайти, то Вы без труда сможете скачать бесплатно и без рекламы последние новинки кино, игр, сериалов и прочего у нас, на Rutor.in. Не нужно использовать прокси, чтобы зайти на рутор, достаточно воспользоваться нашим ресурсом. Все новые фильмы, игры, сериалы, книги и музыка за 2013 и 2014 годы через торрент бесплатно. Скачивайте фильмы в хорошем качестве, игры для пк, xbox, playstation без регистрации. У нас вы найдете новые Зарубежные сериалы и Русские сериалы 2013, 2014, 2015 годов. Оставайтесь с нами, качайте любимые фильмы, игры, сериалы, книги и музыку.