img image001 image001 image001 image001 image001 image001 image001 image001 image001 image001 image001 image001 image001 image001 image001

Planets Sun Sun Sun
Статистика раздачи
Автор: Снежана | Размер: 150.46 МБ | Добавлен: 27 июл 2013
Раздают: 5    Качают: 8
Скачать торрент
Скачать торрент
Описание торрента

СообщениеДобавлено: 27 июл 2013 

#77

Название: Ледниковый период 4: Континентальный дрейф
Оригинальное название: Ice Age: Continental Drift
Год: 2012
Страна: США
Слоган: «-»
Режиссер: Стив Мартино,Майк Трумейер
Сценарий: Майкл Берг,Джейсон Фучс,Майк Рейсс
Продюсер: Джон С. Донкин,Лори Форте ...
Оператор: Ренато Фалькао
Композитор: Джон Пауэлл
Художник: Нэш Данниган
Монтаж: Джеймс Палумбо,Дэвид Йен Сэлтер
Жанр: мультфильм ...

В ролях:
Рэй Романо,
Джон Легуизамо,
Куин Латифа,
Дэнис Лири,
Джош Пек,
Шонн Уильям Скотт,
Кунал Нэйэр,
Дженнифер Лопез,
Алан Тьюдик,
Питер Динклэйдж
...

Студия: -
Продолжительность: 02:12
Перевод: Дубляж
Субтитры: Нет

Описание:
После приключений под землей прошло семь лет. Случился дрейф континентов. Главные герои мультфильма, отделённые от стада, вынуждены использовать айсберг в качестве плота. Они пересекают океан и попадают в неизвестные им ранее земли с экзотическими животными и пиратами, враждебно настроенными к ним. Скрэту удаётся получить свой жёлудь, но он перемещается в новые для него земли.

Доп. информация:
Премьера (мир): 27 июня 2012
Премьера (РФ): 12 июля 2012,Двадцатый Век Фокс СНГ,;3D
Премьера (Укр.): 5 июля 2012,Ukrainian Film Distribution,;3D
Релиз на Blu-Ray: Ноябрь 2012,Двадцатый Век Фокс СНГ
Релиз на DVD: Ноябрь 2012,Двадцатый Век Фокс СНГ



General
Complete name : Ice-Age-Continental-Drift.Trailer.mov
Format : MPEG-4
Format profile : QuickTime
Codec ID : qt
File size : 150 MiB
Duration : 2mn 12s
Overall bit rate : 9 491 Kbps
Movie name : Ice Age: Continental Drift
Movie name/More : In theaters 2012
Encoded date : UTC 2012-03-03 00:05:48
Tagged date : UTC 2012-03-03 00:05:51
Writing library : Apple QuickTime 7.6.0
Copyright : © 2012 20th Century Fox. All Rights Reserved
Comment : Encoded and delivered by apple.com/trailers/
Media/UUID : D7A245A4-52D2-4352-9FC5-8B2D7FE029FE
com.apple.quicktime.player.movie : (Binary)

Video
ID : 1
Format : AVC
Format/Info : Advanced Video Codec
Format profile : Main@L4.0
Format settings, CABAC : No
Format settings, ReFrames : 2 frames
Codec ID : avc1
Codec ID/Info : Advanced Video Coding
Duration : 2mn 12s
Bit rate mode : Variable
Bit rate : 9 389 Kbps
Width : 1 920 pixels
Height : 816 pixels
Display aspect ratio : 2.35:1
Frame rate mode : Constant
Frame rate : 23.976 fps
Color space : YUV
Chroma subsampling : 4:2:0
Bit depth : 8 bits
Scan type : Progressive
Bits/(Pixel*Frame) : 0.250
Stream size : 149 MiB (99%)
Language : English
Encoded date : UTC 2012-03-02 21:08:45
Tagged date : UTC 2012-03-03 00:05:51
Color primaries : BT.709-5, BT.1361, IEC 61966-2-4, SMPTE RP177
Transfer characteristics : BT.709-5, BT.1361
Matrix coefficients : BT.709-5, BT.1361, IEC 61966-2-4 709, SMPTE RP177

Audio
ID : 2
Format : AAC
Format/Info : Advanced Audio Codec
Format version : Version 4
Format profile : LC
Format settings, SBR : No
Codec ID : 40
Duration : 2mn 12s
Bit rate mode : Constant
Bit rate : 96.0 Kbps
Channel(s) : 2 channels
Channel positions : Front: L R
Sampling rate : 44.1 KHz
Stream size : 1.55 MiB (1%)
Language : English
Encoded date : UTC 2012-03-02 21:08:49
Tagged date : UTC 2012-03-03 00:05:51

Menu
ID : 3
Language : English
Encoded date : UTC 2012-03-02 21:12:12
Tagged date : UTC 2012-03-03 00:05:51



Формат: MOV
Качество: HDRip 1080p
Видео: MPEG4 Video (H264) 1920x816 23.98fps 9 389 Kbps
Звук: AAC 44100Hz stereo 98kbps





   Похожие торренты   Торрент   Размер 
В этой теме нет новых непрочитанных сообщений. Ледниковый период 4: Континентальный дрейф / Ice Age: Continental Drift (2012) HDTVRip | Трейлер

5 | 2

143.58 МБ

В этой теме нет новых непрочитанных сообщений. Ледниковый период 4: Континентальный дрейф / Ice Age: Continental Drift (2012) BDRip 1080p

510 | 30

4.37 ГБ

В этой теме нет новых непрочитанных сообщений. Ледниковый период 4: Континентальный дрейф / Ice Age: Continental Drift (2012) HDRip-AVC [Hi10P]

77 | 16

1.09 ГБ

В этой теме нет новых непрочитанных сообщений. Ледниковый период 4: Континентальный дрейф / Ice Age: Continental Drift (2012) Blu-ray 1080p от Youtracker | лицензия

4 | 7

40.29 ГБ

В этой теме нет новых непрочитанных сообщений. Ледниковый период 4: Континентальный дрейф / Ice Age: Continental Drift (2012) BDRip 1080p | Лицензия

28 | 10

8.54 ГБ

В этой теме нет новых непрочитанных сообщений. Ледниковый период 4: Континентальный дрейф / Ice Age: Continental Drift (2012) BDRip 1080p | 3D-Video | D

386 | 23

7.37 ГБ

В этой теме нет новых непрочитанных сообщений. Ледниковый период 4: Континентальный дрейф / Ice Age: Continental Drift (2012) HDRip от Scarabey | Лицензия

405 | 11

1.45 ГБ




Вы не можете начинать темы
Вы не можете отвечать на сообщения
Вы не можете редактировать свои сообщения
Вы не можете удалять свои сообщения
Вы не можете добавлять вложения

Перейти:  
Для Мосгорсуда, Роскомнадзора и рекламодателей: mosgorsud-torrent[собачка]yandex.ru
 Вход
ppkBB3cker v.2 © 2008-2014 @ PPK
[ Time : 0.023s | 14 Queries | GZIP : Off ]

Торрент трекер RUTOR.IN, Не можете зайти на rutor.org? Какой новый адрес рутор? Какое зеркало рутор? Не работает rutor.org и зеркала? Тогда наш торрент специально для вас. Rutor.in неофициальное зеркало rutor. В случае если у Вас заблокирован rutor или вдруг Вы не можете на него зайти, то Вы без труда сможете скачать бесплатно и без рекламы последние новинки кино, игр, сериалов и прочего у нас, на Rutor.in. Не нужно использовать прокси, чтобы зайти на рутор, достаточно воспользоваться нашим ресурсом. Все новые фильмы, игры, сериалы, книги и музыка за 2013 и 2014 годы через торрент бесплатно. Скачивайте фильмы в хорошем качестве, игры для пк, xbox, playstation без регистрации. У нас вы найдете новые Зарубежные сериалы и Русские сериалы 2013, 2014, 2015 годов. Оставайтесь с нами, качайте любимые фильмы, игры, сериалы, книги и музыку.