img image001 image001 image001 image001 image001 image001 image001 image001 image001 image001 image001 image001 image001 image001 image001

Planets Sun Sun Sun
Статистика раздачи
Автор: Снежана | Размер: 4.38 ГБ | Добавлен: 27 июл 2013
Раздают: 61    Качают: 4
Скачать торрент
Скачать торрент
Описание торрента

СообщениеДобавлено: 27 июл 2013 

#77

Название: Принцесса и лягушка
Оригинальное название: The Princess and the Frog
Год выхода: 2009
Жанр: мультфильм, мюзикл, фэнтези, мелодрама, семейный
Режиссер: Рон Клементс и Джон Маскер

В ролях: Аника Нони Роуз, Бруно Кампос, Кит Дэвид, Дженнифер Коуди, Джим Каммингс, Питер Бартлетт, Дженифер Льюис, Опра Уинфри, Терренс Ховард

О фильме: Все мы знаем, что бывает, когда принц целует заколдованную в лягушку принцессу. Но что случится, если переодетая в принцессу официантка поцелует лягушку-принца?
Команда мультипликаторов под руководством Рона Клементса и Джона Маскера, создателей «Русалочки» и «Аладдина», а также обладатель премии «Оскар» композитор Рэнди Ньюман поведают самую прекрасную историю любви на свете… с участием лягушек, магии Вуду и поющего аллигатора.



Выпущено: США
Продолжительность: 01:37:28
Перевод: Дублированный + Оригинал

Файл
Кодек: H264
Качество: BDRip 1080p
Видео: 1920x1080, 5656 Kbps, 23.976 fps
Аудио #1: AC-3, 6 ch, 384 kbps (Rus)
Аудио #2: AC-3, 6 ch, 384 kbps (Eng)
Cубтитры: русские, английские

General
Unique ID : 184160128113874707647317241839819308140 (0x8A8BF355E996EF0EB00A2851B5EE3C6C)
Complete name : Принцесса и лягушка.2009.BDRip.1080p.Rus.Eng.mkv
Format : Matroska
Format version : Version 2
File size : 4.38 GiB
Duration : 1h 37mn
Overall bit rate : 6 427 Kbps
Movie name : Принцесса и лягушка.2009
Encoded date : UTC 2012-03-08 10:46:39
Writing application : mkvmerge v5.3.0 ('I could have danced') built on Mar 7 2012 20:09:32
Writing library : libebml v1.2.3 + libmatroska v1.3.0

Video
ID : 1
Format : AVC
Format/Info : Advanced Video Codec
Format profile : High@L4.1
Format settings, CABAC : Yes
Format settings, ReFrames : 4 frames
Codec ID : V_MPEG4/ISO/AVC
Duration : 1h 37mn
Bit rate : 5 656 Kbps
Width : 1 920 pixels
Height : 1 080 pixels
Display aspect ratio : 16:9
Frame rate mode : Variable
Frame rate : 23.976 fps
Color space : YUV
Chroma subsampling : 4:2:0
Bit depth : 8 bits
Scan type : Progressive
Bits/(Pixel*Frame) : 0.114
Stream size : 3.77 GiB (86%)
Title : Rip by Boriy
Writing library : x264 core 120 r2146M bcd41db
Encoding settings : cabac=1 / ref=4 / deblock=1:0:0 / analyse=0x3:0x133 / me=umh / subme=10 / psy=1 / psy_rd=1.00:0.10 / mixed_ref=1 / me_range=32 / chroma_me=1 / trellis=2 / 8x8dct=1 / cqm=0 / deadzone=21,11 / fast_pskip=0 / chroma_qp_offset=-3 / threads=12 / sliced_threads=0 / nr=0 / decimate=1 / interlaced=0 / bluray_compat=0 / constrained_intra=0 / bframes=5 / b_pyramid=2 / b_adapt=2 / b_bias=0 / direct=3 / weightb=1 / open_gop=0 / weightp=2 / keyint=240 / keyint_min=24 / scenecut=40 / intra_refresh=0 / rc_lookahead=60 / rc=2pass / mbtree=1 / bitrate=5656 / ratetol=1.0 / qcomp=0.60 / qpmin=0 / qpmax=69 / qpstep=4 / cplxblur=20.0 / qblur=0.5 / ip_ratio=1.40 / aq=1:1.00
Language : English
Default : Yes
Forced : No

Audio #1
ID : 2
Format : AC-3
Format/Info : Audio Coding 3
Mode extension : CM (complete main)
Codec ID : A_AC3
Duration : 1h 37mn
Bit rate mode : Constant
Bit rate : 384 Kbps
Channel(s) : 6 channels
Channel positions : Front: L C R, Side: L R, LFE
Sampling rate : 48.0 KHz
Bit depth : 16 bits
Compression mode : Lossy
Stream size : 268 MiB (6%)
Title : Дубляж
Language : Russian
Default : Yes
Forced : No

Audio #2
ID : 3
Format : AC-3
Format/Info : Audio Coding 3
Mode extension : CM (complete main)
Codec ID : A_AC3
Duration : 1h 37mn
Bit rate mode : Constant
Bit rate : 384 Kbps
Channel(s) : 6 channels
Channel positions : Front: L C R, Side: L R, LFE
Sampling rate : 48.0 KHz
Bit depth : 16 bits
Compression mode : Lossy
Stream size : 268 MiB (6%)
Title : Оригинал
Language : English
Default : No
Forced : No

Text #1
ID : 4
Format : UTF-8
Codec ID : S_TEXT/UTF8
Codec ID/Info : UTF-8 Plain Text
Language : Russian
Default : No
Forced : No

Text #2
ID : 5
Format : UTF-8
Codec ID : S_TEXT/UTF8
Codec ID/Info : UTF-8 Plain Text
Language : English
Default : No
Forced : No

Menu
00:00:00.000 : en:
00:03:57.779 : en:
00:07:16.434 : en:
00:12:05.391 : en:
00:17:45.480 : en:
00:22:04.698 : en:
00:26:47.188 : en:
00:31:22.046 : en:
00:35:49.105 : en:
00:41:11.802 : en:
00:44:30.583 : en:
00:50:37.867 : en:
00:54:52.956 : en:
01:00:08.771 : en:
01:07:21.495 : en:
01:13:34.533 : en:
01:21:50.697 : en:
01:24:23.765 : en:
01:27:06.637 : en:
01:30:28.421 : en:
01:37:27.424 : en:



   Похожие торренты   Торрент   Размер 
В этой теме нет новых непрочитанных сообщений. Принцесса и лягушка / The Princess and the Frog (2009) BDRip | D

341 | 11

748.69 МБ

В этой теме нет новых непрочитанных сообщений. Принцесса и лягушка / The Princess and the Frog (2009) BDRip от HQ-ViDEO

145 | 12

1.72 ГБ

В этой теме нет новых непрочитанных сообщений. Принцесса и лягушка / The Princess and the Frog (2009) BDRip от HQCLUB

17 | 6

1.98 ГБ

В этой теме нет новых непрочитанных сообщений. Принцесса и лягушка / The Princess and the Frog (2009) BDRip от HELLYWOOD

20 | 10

1.76 ГБ

В этой теме нет новых непрочитанных сообщений. Принцесса и лягушка / The Princess and the Frog (2009) BDRip-AVC от 0ptimus | D, P2

128 | 10

2.63 ГБ

В этой теме нет новых непрочитанных сообщений. Принцесса и лягушка / The Princess and the Frog (2009) BDRip от bigfree-torrents

0 | 2

1.5 ГБ

В этой теме нет новых непрочитанных сообщений. Принцесса и лягушка / The Princess and the Frog (2009) BDRip 720p от Leonardo and Scarabey | D

674 | 37

2.45 ГБ




Вы не можете начинать темы
Вы не можете отвечать на сообщения
Вы не можете редактировать свои сообщения
Вы не можете удалять свои сообщения
Вы не можете добавлять вложения

Перейти:  
Для Мосгорсуда, Роскомнадзора и рекламодателей: mosgorsud-torrent[собачка]yandex.ru
 Вход
ppkBB3cker v.2 © 2008-2014 @ PPK
[ Time : 0.054s | 14 Queries | GZIP : Off ]

Торрент трекер RUTOR.IN, Не можете зайти на rutor.org? Какой новый адрес рутор? Какое зеркало рутор? Не работает rutor.org и зеркала? Тогда наш торрент специально для вас. Rutor.in неофициальное зеркало rutor. В случае если у Вас заблокирован rutor или вдруг Вы не можете на него зайти, то Вы без труда сможете скачать бесплатно и без рекламы последние новинки кино, игр, сериалов и прочего у нас, на Rutor.in. Не нужно использовать прокси, чтобы зайти на рутор, достаточно воспользоваться нашим ресурсом. Все новые фильмы, игры, сериалы, книги и музыка за 2013 и 2014 годы через торрент бесплатно. Скачивайте фильмы в хорошем качестве, игры для пк, xbox, playstation без регистрации. У нас вы найдете новые Зарубежные сериалы и Русские сериалы 2013, 2014, 2015 годов. Оставайтесь с нами, качайте любимые фильмы, игры, сериалы, книги и музыку.