img image001 image001 image001 image001 image001 image001 image001 image001 image001 image001 image001 image001 image001 image001 image001

Planets Sun Sun Sun
Статистика раздачи
Автор: Снежана | Размер: 699.4 МБ | Добавлен: 27 июл 2013
Раздают: 209    Качают: 16
Скачать торрент
Скачать торрент
Описание торрента

СообщениеДобавлено: 27 июл 2013 

#77



Информация о фильме
Название: Банан
Оригинальное название: Banana
Год выхода: 2010
Жанр: Мультфильм, короткометражка, комедия, семейный
Режиссер: Кайл Балда, Самуэль Турнекс
В ролях: Пьер Коффен

О фильме:
Орда голодных миньонов пытается съесть маленький одинокий банан.



Страна: США
Продолжительность: 00:03:45
Перевод: Субтитры

Файл
Кодек: x264
Качество: BDRip 1080p (источник: Blu-Ray Remux / 1080p)
Видео: 1920х1080 (16:9), 7170 Kbps, 23.976 fps, 0.144 bit/pixel
Аудио: 48.0 kHz, AC3 Dolby Digital, 3/2 (L,C,R,l,r) + LFE ch, 448 kbps Eng
Субтитры: Rus, Eng
Размер: 204 mb



Семпл

General
Unique ID : 206102160291050257841486857532497833330 (0x9B0DD50BC3653FB7A2D0151738E5AD72)
Complete name : C:Minions.2010.x264.BDRip.1080pBanana.2010..x264.BDRip.1080p.mkv
Format : Matroska
Format version : Version 2
File size : 204 MiB
Duration : 3mn 45s
Overall bit rate : 7 611 Kbps
Encoded date : UTC 2012-03-09 05:02:03
Writing application : mkvmerge v5.3.0 ('I could have danced') built on Feb 9 2012 10:38:07
Writing library : libebml v1.2.3 + libmatroska v1.3.0

Video
ID : 1
Format : AVC
Format/Info : Advanced Video Codec
Format profile : High@L4.1
Format settings, CABAC : Yes
Format settings, ReFrames : 4 frames
Codec ID : V_MPEG4/ISO/AVC
Duration : 3mn 45s
Bit rate : 7 170 Kbps
Width : 1 920 pixels
Height : 1 080 pixels
Display aspect ratio : 16:9
Frame rate : 23.976 fps
Color space : YUV
Chroma subsampling : 4:2:0
Bit depth : 8 bits
Scan type : Progressive
Bits/(Pixel*Frame) : 0.144
Stream size : 188 MiB (92%)
Title : Banana
Writing library : x264 core 118 r2085 8a62835
Encoding settings : cabac=1 / ref=4 / deblock=1:-1:-1 / analyse=0x3:0x133 / me=umh / subme=11 / psy=1 / psy_rd=1.00:0.00 / mixed_ref=1 / me_range=64 / chroma_me=1 / trellis=2 / 8x8dct=1 / cqm=0 / deadzone=21,11 / fast_pskip=0 / chroma_qp_offset=-2 / threads=1 / sliced_threads=0 / nr=0 / decimate=1 / interlaced=0 / bluray_compat=0 / constrained_intra=0 / bframes=5 / b_pyramid=2 / b_adapt=2 / b_bias=0 / direct=3 / weightb=1 / open_gop=0 / weightp=2 / keyint=250 / keyint_min=23 / scenecut=40 / intra_refresh=0 / rc_lookahead=60 / rc=2pass / mbtree=1 / bitrate=7170 / ratetol=1.0 / qcomp=0.60 / qpmin=8 / qpmax=53 / qpstep=4 / cplxblur=20.0 / qblur=0.5 / vbv_maxrate=50000 / vbv_bufsize=62500 / nal_hrd=none / ip_ratio=1.40 / aq=1:0.90
Language : English
Default : Yes
Forced : No

Audio
ID : 2
Format : AC-3
Format/Info : Audio Coding 3
Mode extension : CM (complete main)
Codec ID : A_AC3
Duration : 3mn 45s
Bit rate mode : Constant
Bit rate : 448 Kbps
Channel(s) : 6 channels
Channel positions : Front: L C R, Side: L R, LFE
Sampling rate : 48.0 KHz
Bit depth : 16 bits
Compression mode : Lossy
Stream size : 12.0 MiB (6%)
Title : AC3 5.1ch 448 kbps
Language : English
Default : Yes
Forced : No

Text #1
ID : 3
Format : UTF-8
Codec ID : S_TEXT/UTF8
Codec ID/Info : UTF-8 Plain Text
Language : Russian
Default : No
Forced : No

Text #2
ID : 4
Format : UTF-8
Codec ID : S_TEXT/UTF8
Codec ID/Info : UTF-8 Plain Text
Language : English
Default : No
Forced : No


Информация о фильме
Название: Преображение дома
Оригинальное название: Home Makeover
Год выхода: 2010
Жанр: Мультфильм, короткометражка, комедия, семейный
Режиссер: Кайл Балда, Самуэль Турнекс
В ролях: Миранда Косгров, Дэна Гайер, Элси Фишер, Пьер Коффен

О фильме:
Социальный работник желает убедиться, что дом Грю подходит для проживания детей.



Страна: США
Продолжительность: 00:04:22
Перевод: Профессиональный (Двухголосый) Кубик в кубе + Любительский (Одноголосый закадровый) Доцент + Оригинал

Файл
Кодек: x264
Качество: BDRip 1080p (источник: Blu-Ray Remux / 1080p)
Видео: 1920х1080 (16:9), 7170 Kbps, 23.976 fps, 0.144 bit/pixel
Аудио #1: 48.0 kHz, AC3 Dolby Digital, 3/2 (L,C,R,l,r) + LFE ch, 448 kbps DVO Кубик в кубе
Аудио #2: 44.1 kHz, MP3, 2 ch, 224 Kbps VO Доцент
Аудио #3: 48.0 kHz, AC3 Dolby Digital, 3/2 (L,C,R,l,r) + LFE ch, 448 kbps Eng
Субтитры: Rus full (Blu-Ray), Eng
Размер: 259 mb



Семпл

General
Unique ID : 184343928455653572982026560115055899875 (0x8AAF5964605B080FB659DCFC3B31B4E3)
Complete name : C:Minions.2010.x264.BDRip.1080pHome.Makeover.2010..x264.BDRip.1080p.mkv
Format : Matroska
Format version : Version 2
File size : 259 MiB
Duration : 4mn 22s
Overall bit rate : 8 282 Kbps
Encoded date : UTC 2012-03-09 05:35:49
Writing application : mkvmerge v5.3.0 ('I could have danced') built on Feb 9 2012 10:38:07
Writing library : libebml v1.2.3 + libmatroska v1.3.0

Video
ID : 1
Format : AVC
Format/Info : Advanced Video Codec
Format profile : High@L4.1
Format settings, CABAC : Yes
Format settings, ReFrames : 4 frames
Codec ID : V_MPEG4/ISO/AVC
Duration : 4mn 22s
Bit rate : 7 170 Kbps
Width : 1 920 pixels
Height : 1 080 pixels
Display aspect ratio : 16:9
Frame rate : 23.976 fps
Color space : YUV
Chroma subsampling : 4:2:0
Bit depth : 8 bits
Scan type : Progressive
Bits/(Pixel*Frame) : 0.144
Stream size : 219 MiB (84%)
Title : Home Makeover
Writing library : x264 core 118 r2085 8a62835
Encoding settings : cabac=1 / ref=4 / deblock=1:-1:-1 / analyse=0x3:0x133 / me=umh / subme=11 / psy=1 / psy_rd=1.00:0.00 / mixed_ref=1 / me_range=64 / chroma_me=1 / trellis=2 / 8x8dct=1 / cqm=0 / deadzone=21,11 / fast_pskip=0 / chroma_qp_offset=-2 / threads=1 / sliced_threads=0 / nr=0 / decimate=1 / interlaced=0 / bluray_compat=0 / constrained_intra=0 / bframes=5 / b_pyramid=2 / b_adapt=2 / b_bias=0 / direct=3 / weightb=1 / open_gop=0 / weightp=2 / keyint=250 / keyint_min=23 / scenecut=40 / intra_refresh=0 / rc_lookahead=60 / rc=2pass / mbtree=1 / bitrate=7170 / ratetol=1.0 / qcomp=0.60 / qpmin=8 / qpmax=53 / qpstep=4 / cplxblur=20.0 / qblur=0.5 / vbv_maxrate=50000 / vbv_bufsize=62500 / nal_hrd=none / ip_ratio=1.40 / aq=1:0.90
Language : English
Default : Yes
Forced : No

Audio #1
ID : 2
Format : AC-3
Format/Info : Audio Coding 3
Mode extension : CM (complete main)
Codec ID : A_AC3
Duration : 4mn 22s
Bit rate mode : Constant
Bit rate : 448 Kbps
Channel(s) : 6 channels
Channel positions : Front: L C R, Side: L R, LFE
Sampling rate : 48.0 KHz
Bit depth : 16 bits
Compression mode : Lossy
Stream size : 14.0 MiB (5%)
Title : AC3 5.1ch 448 kbps - Двухголосый, «Кубик в кубе»
Language : Russian
Default : Yes
Forced : No

Audio #2
ID : 3
Format : MPEG Audio
Format version : Version 1
Format profile : Layer 3
Codec ID : A_MPEG/L3
Codec ID/Hint : MP3
Duration : 4mn 22s
Bit rate mode : Constant
Bit rate : 224 Kbps
Channel(s) : 2 channels
Sampling rate : 44.1 KHz
Compression mode : Lossy
Stream size : 7.01 MiB (3%)
Title : MP3 2ch 224 kbps - Одноголосый, «Доцент»
Language : Russian
Default : No
Forced : No

Audio #3
ID : 4
Format : AC-3
Format/Info : Audio Coding 3
Mode extension : CM (complete main)
Codec ID : A_AC3
Duration : 4mn 22s
Bit rate mode : Constant
Bit rate : 448 Kbps
Channel(s) : 6 channels
Channel positions : Front: L C R, Side: L R, LFE
Sampling rate : 48.0 KHz
Bit depth : 16 bits
Compression mode : Lossy
Stream size : 14.0 MiB (5%)
Title : AC3 5.1ch 448 kbps
Language : English
Default : No
Forced : No

Text #1
ID : 5
Format : UTF-8
Codec ID : S_TEXT/UTF8
Codec ID/Info : UTF-8 Plain Text
Title : full (Blu-ray)
Language : Russian
Default : No
Forced : No

Text #2
ID : 6
Format : UTF-8
Codec ID : S_TEXT/UTF8
Codec ID/Info : UTF-8 Plain Text
Language : English
Default : No
Forced : No


Информация о фильме
Название: Ознакомительный день
Оригинальное название: Orientation Day
Год выхода: 2010
Жанр: Мультфильм, короткометражка, комедия, семейный
Режиссер: Кайл Балда, Самуэль Турнекс
В ролях: Пьер Коффен, Роб Хюбел

О фильме:
Миньоны-новички проходят подробный инструктаж по технике безопасности в лаборатории Грю.



Страна: США
Продолжительность: 00:04:00
Перевод: Профессиональный (Двухголосый) Кубик в кубе + Любительский (Одноголосый закадровый) Доцент + Оригинал

Файл
Кодек: x264
Качество: BDRip 1080p (источник: Blu-Ray Remux / 1080p)
Видео: 1920х1080 (16:9), 7170 Kbps, 23.976 fps, 0.144 bit/pixel
Аудио #1: 48.0 kHz, AC3 Dolby Digital, 3/2 (L,C,R,l,r) + LFE ch, 448 kbps DVO Кубик в кубе
Аудио #2: 44.1 kHz, MP3, 2 ch, 224 Kbps VO Доцент
Аудио #3: 48.0 kHz, AC3 Dolby Digital, 3/2 (L,C,R,l,r) + LFE ch, 448 kbps Eng
Субтитры: Rus forced (Voronine), Rus full (Blu-Ray), Eng
Размер: 236 mb



Семпл

General
Unique ID : 195164969972542439944118923216876201959 (0x92D367EE145CE881B5AF02732493E7E7)
Complete name : C:Minions.2010.x264.BDRip.1080pOrientation.Day.2010..x264.BDRip.1080p.mkv
Format : Matroska
Format version : Version 2
File size : 236 MiB
Duration : 4mn 0s
Overall bit rate : 8 234 Kbps
Encoded date : UTC 2012-03-09 05:19:29
Writing application : mkvmerge v5.3.0 ('I could have danced') built on Feb 9 2012 10:38:07
Writing library : libebml v1.2.3 + libmatroska v1.3.0

Video
ID : 1
Format : AVC
Format/Info : Advanced Video Codec
Format profile : High@L4.1
Format settings, CABAC : Yes
Format settings, ReFrames : 4 frames
Codec ID : V_MPEG4/ISO/AVC
Duration : 4mn 0s
Bit rate : 7 170 Kbps
Width : 1 920 pixels
Height : 1 080 pixels
Display aspect ratio : 16:9
Frame rate : 23.976 fps
Color space : YUV
Chroma subsampling : 4:2:0
Bit depth : 8 bits
Scan type : Progressive
Bits/(Pixel*Frame) : 0.144
Stream size : 199 MiB (84%)
Title : Orientation Day
Writing library : x264 core 118 r2085 8a62835
Encoding settings : cabac=1 / ref=4 / deblock=1:-1:-1 / analyse=0x3:0x133 / me=umh / subme=11 / psy=1 / psy_rd=1.00:0.00 / mixed_ref=1 / me_range=64 / chroma_me=1 / trellis=2 / 8x8dct=1 / cqm=0 / deadzone=21,11 / fast_pskip=0 / chroma_qp_offset=-2 / threads=1 / sliced_threads=0 / nr=0 / decimate=1 / interlaced=0 / bluray_compat=0 / constrained_intra=0 / bframes=5 / b_pyramid=2 / b_adapt=2 / b_bias=0 / direct=3 / weightb=1 / open_gop=0 / weightp=2 / keyint=250 / keyint_min=23 / scenecut=40 / intra_refresh=0 / rc_lookahead=60 / rc=2pass / mbtree=1 / bitrate=7170 / ratetol=1.0 / qcomp=0.60 / qpmin=8 / qpmax=53 / qpstep=4 / cplxblur=20.0 / qblur=0.5 / vbv_maxrate=50000 / vbv_bufsize=62500 / nal_hrd=none / ip_ratio=1.40 / aq=1:0.90
Language : English
Default : Yes
Forced : No

Audio #1
ID : 2
Format : AC-3
Format/Info : Audio Coding 3
Mode extension : CM (complete main)
Codec ID : A_AC3
Duration : 4mn 0s
Bit rate mode : Constant
Bit rate : 448 Kbps
Channel(s) : 6 channels
Channel positions : Front: L C R, Side: L R, LFE
Sampling rate : 48.0 KHz
Bit depth : 16 bits
Compression mode : Lossy
Stream size : 12.8 MiB (5%)
Title : AC3 5.1ch 448 kbps - Двухголосый, «Кубик в кубе»
Language : Russian
Default : Yes
Forced : No

Audio #2
ID : 3
Format : MPEG Audio
Format version : Version 1
Format profile : Layer 3
Codec ID : A_MPEG/L3
Codec ID/Hint : MP3
Duration : 4mn 0s
Bit rate mode : Constant
Bit rate : 224 Kbps
Channel(s) : 2 channels
Sampling rate : 44.1 KHz
Compression mode : Lossy
Stream size : 6.42 MiB (3%)
Title : MP3 2ch 224 kbps - Одноголосый, «Доцент»
Language : Russian
Default : No
Forced : No

Audio #3
ID : 4
Format : AC-3
Format/Info : Audio Coding 3
Mode extension : CM (complete main)
Codec ID : A_AC3
Duration : 4mn 0s
Bit rate mode : Constant
Bit rate : 448 Kbps
Channel(s) : 6 channels
Channel positions : Front: L C R, Side: L R, LFE
Sampling rate : 48.0 KHz
Bit depth : 16 bits
Compression mode : Lossy
Stream size : 12.8 MiB (5%)
Title : AC3 5.1ch 448 kbps
Language : English
Default : No
Forced : No

Text #1
ID : 5
Format : UTF-8
Codec ID : S_TEXT/UTF8
Codec ID/Info : UTF-8 Plain Text
Title : forced (voronine)
Language : Russian
Default : Yes
Forced : No

Text #2
ID : 6
Format : UTF-8
Codec ID : S_TEXT/UTF8
Codec ID/Info : UTF-8 Plain Text
Title : full (Blu-ray)
Language : Russian
Default : No
Forced : No

Text #3
ID : 7
Format : UTF-8
Codec ID : S_TEXT/UTF8
Codec ID/Info : UTF-8 Plain Text
Language : English
Default : No
Forced : No



   Похожие торренты   Торрент   Размер 
В этой теме нет новых непрочитанных сообщений. Миньоны / Minions World Despicable Me (2010) BDRip 1080p от FREEISLAND

47 | 8

388.89 МБ

В этой теме нет новых непрочитанных сообщений. Миньоны / Minions (2010) BDRip 720p

120 | 4

433.04 МБ

В этой теме нет новых непрочитанных сообщений. Миньоны / Minions (2010) BDRip | КПК от Generalfilm

106 | 6

41.65 МБ

В этой теме нет новых непрочитанных сообщений. Миньоны / Minions (2015) BDRip 1080p | Лицензия

1012 | 74

7.76 ГБ

В этой теме нет новых непрочитанных сообщений. Миньоны / Minions (2010) BDRip 720p | Кубик в Кубе

307 | 8

413.82 МБ

В этой теме нет новых непрочитанных сообщений. Миньоны / Minions (2015) BDRip 1080p от Ash61 | 3D-Video | halfOU | iTunes

2268 | 130

10.72 ГБ

В этой теме нет новых непрочитанных сообщений. Миньоны: Мини-фильмы / Minions: Mini-Movie - The Competition [1-3] (2015) BDRip 1080p | D

2262 | 22

2.05 ГБ




Вы не можете начинать темы
Вы не можете отвечать на сообщения
Вы не можете редактировать свои сообщения
Вы не можете удалять свои сообщения
Вы не можете добавлять вложения

Перейти:  
Для Мосгорсуда, Роскомнадзора и рекламодателей: mosgorsud-torrent[собачка]yandex.ru
 Вход
ppkBB3cker v.2 © 2008-2014 @ PPK
[ Time : 0.035s | 15 Queries | GZIP : Off ]

Торрент трекер RUTOR.IN, Не можете зайти на rutor.org? Какой новый адрес рутор? Какое зеркало рутор? Не работает rutor.org и зеркала? Тогда наш торрент специально для вас. Rutor.in неофициальное зеркало rutor. В случае если у Вас заблокирован rutor или вдруг Вы не можете на него зайти, то Вы без труда сможете скачать бесплатно и без рекламы последние новинки кино, игр, сериалов и прочего у нас, на Rutor.in. Не нужно использовать прокси, чтобы зайти на рутор, достаточно воспользоваться нашим ресурсом. Все новые фильмы, игры, сериалы, книги и музыка за 2013 и 2014 годы через торрент бесплатно. Скачивайте фильмы в хорошем качестве, игры для пк, xbox, playstation без регистрации. У нас вы найдете новые Зарубежные сериалы и Русские сериалы 2013, 2014, 2015 годов. Оставайтесь с нами, качайте любимые фильмы, игры, сериалы, книги и музыку.