img image001 image001 image001 image001 image001 image001 image001 image001 image001 image001 image001 image001 image001 image001 image001

Planets Sun Sun Sun
Статистика раздачи
Автор: Снежана | Размер: 345.45 МБ | Добавлен: 27 июл 2013
Раздают: 68    Качают: 3
Скачать торрент
Скачать торрент
Описание торрента

СообщениеДобавлено: 27 июл 2013 


Информация о фильме
Название: Маша и Медведь: Подкидыш
Год выхода: 2012
Жанр: Мультфильм, короткометражка, комедия, семейный
Режиссер: Олег Кузовков, Денис Червяцов
Роли озвучивали: Алина Кукушкина, Эдуард Назаров, Борис Кутневич


О фильме:
Маша, прогуливаясь по лесу, натыкается на огромное яйцо! Пытливый ум Маши пытается представить - кто же там сидит? С этим вопросом она обращается к Медведю, и он сразу определяет, что там сидит пингвиненок! Маша поручает Медведю высидеть яйцо. После того, как малыш появился на свет, они с Машей и Медведем стали одной большой семьей.





Страна: Россия
Продолжительность: 00:07:13
Студия: "Анимаккорд"
Перевод: оригинал


Файл
Кодек: Advanced Video Coding
Качество: BDRip
Видео: 1920 x 1080 (1.778) at 50.000 fps/AVC at 6034 Кбит/сек
Аудио: AC-3 at 640 Кбит/сек/2 канала, 48,0 КГц


Видео
Идентификатор : 1
Формат : AVC
Формат/Информация : Advanced Video Codec
Профиль формата : High@L4.1
Параметр CABAC формата : Да
Параметр ReFrames формата : 3 кадра
Идентификатор кодека : avc1
Идентификатор кодека/Информация : Advanced Video Coding
Продолжительность : 7 м. 13 с.
Битрейт : 6034 Кбит/сек
Ширина : 1920 пикселей
Высота : 1080 пикселей
Соотношение сторон : 16:9
Режим частоты кадров : Постоянный
Частота кадров : 50,000 кадров/сек
Цветовое пространство : YUV
Субдискретизация насыщенности : 4:2:0
Битовая глубина : 8 бит
Тип развёртки : Прогрессивная
Бит/(Пиксели*Кадры) : 0.058
Размер потока : 312 Мбайт (90%)
Библиотека кодирования : x264 core 116 r2019M 9cc407d
Язык : Russian
Аудио
Идентификатор : 2
Формат : AC-3
Формат/Информация : Audio Coding 3
Расширение режима : CM (complete main)
Идентификатор кодека : ac-3
Продолжительность : 7 м. 13 с.
Вид битрейта : Постоянный
Битрейт : 640 Кбит/сек
Каналы : 2 канала
Расположение каналов : Front: L R
Частота : 48,0 КГц
Битовая глубина : 16 бит
Метод сжатия : С потерями
Размер потока : 33,1 Мбайт (10%)
Язык : Russian



   Похожие торренты   Торрент   Размер 
В этой теме нет новых непрочитанных сообщений. Маша и Медведь. Подкидыш [23] (2012) BDRip | КПК от Vitalik76

0 | 13

43.49 МБ

В этой теме нет новых непрочитанных сообщений. Маша и Медведь (01-25) (2009-2012) BDRip 1080p

13 | 10

9.99 ГБ

В этой теме нет новых непрочитанных сообщений. Маша и Медведь (01-25) (2009-2012) BDRip 1080p

0 | 2

8.09 ГБ

В этой теме нет новых непрочитанных сообщений. Маша и медведь. Машины сказки [01-06 из 06] (2012) BDRip 1080p

0 | 2

1.81 ГБ

В этой теме нет новых непрочитанных сообщений. Маша и Медведь: Картина маслом [27] (2012) BDRip 1080p

74 | 7

629.74 МБ

В этой теме нет новых непрочитанных сообщений. Маша и Медведь. Пещерный медведь [48] (2015) WEB-DL 1080p от GeneralFilm

942 | 39

184.56 МБ

В этой теме нет новых непрочитанных сообщений. Маша и Медведь [17-25 из ?] (2011-2012) Blu-Ray 1080p от Youtracker

6 | 3

15.33 ГБ




Вы не можете начинать темы
Вы не можете отвечать на сообщения
Вы не можете редактировать свои сообщения
Вы не можете удалять свои сообщения
Вы не можете добавлять вложения

Перейти:  
Для Мосгорсуда, Роскомнадзора и рекламодателей: mosgorsud-torrent[собачка]yandex.ru
 Вход
ppkBB3cker v.2 © 2008-2014 @ PPK
[ Time : 4.708s | 14 Queries | GZIP : Off ]

Торрент трекер RUTOR.IN, Не можете зайти на rutor.org? Какой новый адрес рутор? Какое зеркало рутор? Не работает rutor.org и зеркала? Тогда наш торрент специально для вас. Rutor.in неофициальное зеркало rutor. В случае если у Вас заблокирован rutor или вдруг Вы не можете на него зайти, то Вы без труда сможете скачать бесплатно и без рекламы последние новинки кино, игр, сериалов и прочего у нас, на Rutor.in. Не нужно использовать прокси, чтобы зайти на рутор, достаточно воспользоваться нашим ресурсом. Все новые фильмы, игры, сериалы, книги и музыка за 2013 и 2014 годы через торрент бесплатно. Скачивайте фильмы в хорошем качестве, игры для пк, xbox, playstation без регистрации. У нас вы найдете новые Зарубежные сериалы и Русские сериалы 2013, 2014, 2015 годов. Оставайтесь с нами, качайте любимые фильмы, игры, сериалы, книги и музыку.