img image001 image001 image001 image001 image001 image001 image001 image001 image001 image001 image001 image001 image001 image001 image001

Planets Sun Sun Sun
Статистика раздачи
Автор: Снежана | Размер: 2.22 ГБ | Добавлен: 27 июл 2013
Раздают: 8    Качают: 3
Скачать торрент
Скачать торрент
Описание торрента

СообщениеДобавлено: 27 июл 2013 

#77

Информация о фильме
Название: Кот в сапогах
Оригинальное название: Puss in Boots
Год выхода: 2011
Жанр: мультфильм, комедия, приключения, семейный
Режиссер: Крис Миллер
В ролях: Антонио Бандерас, Сальма Хайек, Зак Галифианакис, Билли Боб Торнтон, Эми Седарис, Констанс Мари, Гильермо дель Торо, Рич Дитль, Райан Крего, Том Вилер

О фильме:
Мечи пересекутся и сердца будут разбиты в приключениях с одним из самых любимых персонажей из Шрэка - котом в сапогах. Это удалая поездка ранних лет кота в сапогах, когда он объединяется с умным Шалтай-Болтаем и сообразительной Кисой, чтобы украсть знаменитую Гусыню, несущую золотые яйца.

Страна: США
Студия: DreamWorks Animation
Продолжительность: 01:30:14
Перевод: Дублированный (лицензия)

Файл
Кодек: x.264
Качество: BDRip 1080p
Видео: 3070 kb/s, 1918x816, 23.976 fps
Звук: AC3, 448 kb/s (6Ch)
Субтитры: Русские, Английские



Общее
Формат : Matroska
Версия формата : Version 2
Размер файла : 2,22 Гбайт
Продолжительность : 1 ч. 30 м.
Общий поток : 3518 Кбит/сек
Название фильма : Puss in Boot (2011) BDRip 1080p-Rip by Neofilm
Дата кодирования : UTC 2012-03-09 17:16:44
Программа кодирования : mkvmerge v5.3.0 ('I could have danced') built on Feb 9 2012 10:38:07
Библиотека кодирования : libebml v1.2.3 + libmatroska v1.3.0

Видео
Идентификатор : 1
Формат : AVC
Формат/Информация : Advanced Video Codec
Профиль формата : High@L4.1
Параметр CABAC формата : Да
Параметр ReFrames формата : 5 кадров
Идентификатор кодека : V_MPEG4/ISO/AVC
Продолжительность : 1 ч. 30 м.
Битрейт : 3070 Кбит/сек
Ширина : 1918 пикселей
Высота : 816 пикселей
Соотношение сторон : 2,35:1
Частота кадров : 23,976 кадра/сек
Цветовое пространство : YUV
Субдискретизация насыщенности : 4:2:0
Битовая глубина : 8 бит
Тип развёртки : Прогрессивная
Бит/(Пиксели*Кадры) : 0.082
Размер потока : 1,89 Гбайт (85%)
Библиотека кодирования : x264 core 120 r2164 da19765
Настройки программы : cabac=1 / ref=5 / deblock=1:0:0 / analyse=0x3:0x113 / me=tesa / subme=11 / psy=1 / psy_rd=1.00:0.00 / mixed_ref=1 / me_range=32 / chroma_me=1 / trellis=2 / 8x8dct=1 / cqm=0 / deadzone=21,11 / fast_pskip=0 / chroma_qp_offset=-2 / threads=12 / sliced_threads=0 / nr=0 / decimate=0 / interlaced=0 / bluray_compat=0 / constrained_intra=0 / bframes=5 / b_pyramid=2 / b_adapt=2 / b_bias=0 / direct=3 / weightb=1 / open_gop=0 / weightp=2 / keyint=240 / keyint_min=23 / scenecut=40 / intra_refresh=0 / rc_lookahead=40 / rc=2pass / mbtree=0 / bitrate=3070 / ratetol=1.0 / qcomp=0.60 / qpmin=0 / qpmax=69 / qpstep=4 / cplxblur=20.0 / qblur=0.5 / vbv_maxrate=50000 / vbv_bufsize=62500 / nal_hrd=none / ip_ratio=1.40 / pb_ratio=1.30 / aq=2:0.70
Язык : English
Default : Да
Forced : Нет

Аудио
Идентификатор : 2
Формат : AC-3
Формат/Информация : Audio Coding 3
Расширение режима : CM (complete main)
Идентификатор кодека : A_AC3
Продолжительность : 1 ч. 30 м.
Вид битрейта : Постоянный
Битрейт : 448 Кбит/сек
Каналы : 6 каналов
Расположение каналов : Front: L C R, Side: L R, LFE
Частота : 48,0 КГц
Битовая глубина : 16 бит
Метод сжатия : С потерями
Размер потока : 289 Мбайт (13%)
Заголовок : AC3 5.1 @ 448 kbps - Дублированный
Язык : Russian
Default : Нет
Forced : Нет

Текст #1
Идентификатор : 3
Формат : UTF-8
Идентификатор кодека : S_TEXT/UTF8
Идентификатор кодека/Информация : UTF-8 Plain Text
Заголовок : Voronine
Язык : Russian
Default : Нет
Forced : Нет

Текст #2
Идентификатор : 4
Формат : UTF-8
Идентификатор кодека : S_TEXT/UTF8
Идентификатор кодека/Информация : UTF-8 Plain Text
Язык : English
Default : Нет
Forced : Нет

Текст #3
Идентификатор : 5
Формат : UTF-8
Идентификатор кодека : S_TEXT/UTF8
Идентификатор кодека/Информация : UTF-8 Plain Text
Заголовок : SDH
Язык : English
Default : Нет
Forced : Нет

Меню
00:00:00.000 : en:Chapter 01
00:03:25.247 : en:Chapter 02
00:07:20.148 : en:Chapter 03
00:11:46.831 : en:Chapter 04
00:15:53.369 : en:Chapter 05
00:19:23.537 : en:Chapter 06
00:25:58.348 : en:Chapter 07
00:29:22.427 : en:Chapter 08
00:34:06.461 : en:Chapter 09
00:39:17.438 : en:Chapter 10
00:44:12.108 : en:Chapter 11
00:49:34.054 : en:Chapter 12
00:54:05.951 : en:Chapter 13
00:57:38.205 : en:Chapter 14
01:03:05.991 : en:Chapter 15
01:08:14.716 : en:Chapter 16
01:16:51.774 : en:Chapter 17
01:19:42.194 : en:Chapter 18

Релиз от:



   Похожие торренты   Торрент   Размер 
В этой теме нет новых непрочитанных сообщений. Кот в сапогах / Puss in Boots (2011) BDRip 1080p

66 | 12

4.37 ГБ

В этой теме нет новых непрочитанных сообщений. Кот в сапогах / Puss in Boots (2011) BDRip 1080p

11 | 9

6.3 ГБ

В этой теме нет новых непрочитанных сообщений. Кот в сапогах / Puss in Boots (2011) BDRip 1080p | 3D-Video

11 | 4

12.1 ГБ

В этой теме нет новых непрочитанных сообщений. Кот в сапогах / Puss in Boots (2011) BDRip (1080p) - marcury

13 | 9

11.55 ГБ

В этой теме нет новых непрочитанных сообщений. Кот в сапогах: Три Чертенка / Puss in Boots: The Three Diablos (2011) BDRip 1080p

217 | 6

699.76 МБ

В этой теме нет новых непрочитанных сообщений. Кот в сапогах: Три Чертенка / Puss in Boots: The Three Diablos (2011) BDRip 1080p

45 | 6

1011.89 МБ

В этой теме нет новых непрочитанных сообщений. Кот в сапогах / Puss in Boots (2011) BDRip 1080p от NOLIMITS-TEAM | 3D-Video

10 | 3

4.37 ГБ




Вы не можете начинать темы
Вы не можете отвечать на сообщения
Вы не можете редактировать свои сообщения
Вы не можете удалять свои сообщения
Вы не можете добавлять вложения

Перейти:  
Для Мосгорсуда, Роскомнадзора и рекламодателей: mosgorsud-torrent[собачка]yandex.ru
 Вход
ppkBB3cker v.2 © 2008-2014 @ PPK
[ Time : 0.018s | 14 Queries | GZIP : Off ]

Торрент трекер RUTOR.IN, Не можете зайти на rutor.org? Какой новый адрес рутор? Какое зеркало рутор? Не работает rutor.org и зеркала? Тогда наш торрент специально для вас. Rutor.in неофициальное зеркало rutor. В случае если у Вас заблокирован rutor или вдруг Вы не можете на него зайти, то Вы без труда сможете скачать бесплатно и без рекламы последние новинки кино, игр, сериалов и прочего у нас, на Rutor.in. Не нужно использовать прокси, чтобы зайти на рутор, достаточно воспользоваться нашим ресурсом. Все новые фильмы, игры, сериалы, книги и музыка за 2013 и 2014 годы через торрент бесплатно. Скачивайте фильмы в хорошем качестве, игры для пк, xbox, playstation без регистрации. У нас вы найдете новые Зарубежные сериалы и Русские сериалы 2013, 2014, 2015 годов. Оставайтесь с нами, качайте любимые фильмы, игры, сериалы, книги и музыку.