img image001 image001 image001 image001 image001 image001 image001 image001 image001 image001 image001 image001 image001 image001 image001

Planets Sun Sun Sun
Статистика раздачи
Автор: Снежана | Размер: 1011.89 МБ | Добавлен: 27 июл 2013
Раздают: 45    Качают: 6
Скачать торрент
Скачать торрент
Описание торрента

СообщениеДобавлено: 27 июл 2013 

#77

Информация о фильме
Название: Кот в сапогах: Три Чертенка
Оригинальное название: Puss in Boots: The Three Diablos
Год выхода: 2011
Жанр: Мультфильм, короткометражка
Режиссер: Раман Хюи
В ролях: Aнтонио Бандерас, Жилль Марини, Шарлотта Ньюхаус, Крис Миллер, Уолт Дорн, Брэт Марнелл, Майлз Кристофер Бакши, Нина Зои Бакши, Гийом Аретос

О фильме:
Кот в сапогах отправляется на поиск рубина, украденного из короны принцессы пресловутым французским вором Виспере. Его сопровождают три маленьких котенка, три Дьяволенка, Кот должен приручить их, прежде чем поставить под угрозу миссию.



Страна: США
Студия: DreamWorks Animation
Продолжительность: 00:13:05
Перевод: Дублированный + Оригинал

Файл
Кодек: x264
Качество: BDRip 1080p (источник: Blu-Ray Remux / 1080p)
Видео: 1920х1080 (16:9), 9713 Kbps, 23.976 fps, 0.195 bit/pixel
Аудио #1: 48.0 kHz, AC3 Dolby Digital, 3/2 (L,C,R,l,r) + LFE ch, 448 kbps [Rus]
Аудио #2: 48.0 kHz, AC3 Dolby Digital, 3/2 (L,C,R,l,r) + LFE ch, 640 kbps [Eng]
Субтитры: Rus, Eng

Семпл




General
Unique ID : 244496368008280963181423833784116061024 (0xB7F049A30B50537BB6E9C419E7A02360)
Complete name : C:Kot.v.sapogah.Tri.chertenka.2011.х264.BDRip.1080p.mkv
Format : Matroska
Format version : Version 2
File size : 1 012 MiB
Duration : 13mn 5s
Overall bit rate : 10.8 Mbps
Encoded date : UTC 2012-03-13 19:19:31
Writing application : mkvmerge v5.3.0 ('I could have danced') built on Feb 9 2012 10:38:07
Writing library : libebml v1.2.3 + libmatroska v1.3.0

Video
ID : 1
Format : AVC
Format/Info : Advanced Video Codec
Format profile : High@L4.1
Format settings, CABAC : Yes
Format settings, ReFrames : 4 frames
Codec ID : V_MPEG4/ISO/AVC
Duration : 13mn 5s
Bit rate : 9 713 Kbps
Width : 1 920 pixels
Height : 1 080 pixels
Display aspect ratio : 16:9
Frame rate : 23.976 fps
Color space : YUV
Chroma subsampling : 4:2:0
Bit depth : 8 bits
Scan type : Progressive
Bits/(Pixel*Frame) : 0.195
Stream size : 890 MiB (88%)
Writing library : x264 core 120 r2164 da19765
Encoding settings : cabac=1 / ref=4 / deblock=1:0:0 / analyse=0x3:0x133 / me=umh / subme=11 / psy=1 / psy_rd=1.00:0.00 / mixed_ref=1 / me_range=64 / chroma_me=1 / trellis=2 / 8x8dct=1 / cqm=0 / deadzone=21,11 / fast_pskip=0 / chroma_qp_offset=-2 / threads=1 / sliced_threads=0 / nr=0 / decimate=1 / interlaced=0 / bluray_compat=0 / constrained_intra=0 / bframes=5 / b_pyramid=2 / b_adapt=2 / b_bias=0 / direct=3 / weightb=1 / open_gop=0 / weightp=2 / keyint=250 / keyint_min=23 / scenecut=40 / intra_refresh=0 / rc_lookahead=60 / rc=2pass / mbtree=1 / bitrate=9713 / ratetol=1.0 / qcomp=0.60 / qpmin=7 / qpmax=54 / qpstep=4 / cplxblur=20.0 / qblur=0.5 / vbv_maxrate=50000 / vbv_bufsize=62500 / nal_hrd=none / ip_ratio=1.40 / aq=1:0.80
Language : English
Default : Yes
Forced : No

Audio #1
ID : 2
Format : AC-3
Format/Info : Audio Coding 3
Mode extension : CM (complete main)
Codec ID : A_AC3
Duration : 13mn 5s
Bit rate mode : Constant
Bit rate : 448 Kbps
Channel(s) : 6 channels
Channel positions : Front: L C R, Side: L R, LFE
Sampling rate : 48.0 KHz
Bit depth : 16 bits
Compression mode : Lossy
Stream size : 42.0 MiB (4%)
Title : AC3 5.1ch 448 kbps - Дубляж
Language : Russian
Default : Yes
Forced : No

Audio #2
ID : 3
Format : AC-3
Format/Info : Audio Coding 3
Mode extension : CM (complete main)
Codec ID : A_AC3
Duration : 13mn 5s
Bit rate mode : Constant
Bit rate : 640 Kbps
Channel(s) : 6 channels
Channel positions : Front: L C R, Side: L R, LFE
Sampling rate : 48.0 KHz
Bit depth : 16 bits
Compression mode : Lossy
Stream size : 59.9 MiB (6%)
Title : AC3 5.1ch 640 kbps
Language : English
Default : No
Forced : No

Text #1
ID : 4
Format : UTF-8
Codec ID : S_TEXT/UTF8
Codec ID/Info : UTF-8 Plain Text
Language : Russian
Default : No
Forced : No

Text #2
ID : 5
Format : UTF-8
Codec ID : S_TEXT/UTF8
Codec ID/Info : UTF-8 Plain Text
Language : English
Default : No
Forced : No



   Похожие торренты   Торрент   Размер 
В этой теме нет новых непрочитанных сообщений. Кот в сапогах: Три Чертенка / Puss in Boots: The Three Diablos (2011) BDRip 1080p

217 | 6

699.76 МБ

В этой теме нет новых непрочитанных сообщений. Кот в сапогах: Три Чертенка / Puss in Boots: The Three Diablos (2011) BDRip-AVC

16 | 5

642.81 МБ

В этой теме нет новых непрочитанных сообщений. Кот в сапогах: Три Чертенка / Puss in Boots: The Three Diablos (2011) BDRip от HQCLUB

5 | 7

365.07 МБ

В этой теме нет новых непрочитанных сообщений. Кот в сапогах: Три Чертенка / Puss in Boots: The Three Diablos (2011) BDRip 720 от SuperMin

420 | 8

387.79 МБ

В этой теме нет новых непрочитанных сообщений. Кот в сапогах: Три Чертенка / Puss in Boots: The Three Diablos (2011) BDRip 720p

14 | 4

717.65 МБ

В этой теме нет новых непрочитанных сообщений. Кот в сапогах: Три Чертенка / Puss in Boots: The Three Diablos (2011) BDRip от HELLYWOOD

10 | 4

281.96 МБ

В этой теме нет новых непрочитанных сообщений. Кот в сапогах: Три Чертенка / Puss in Boots: The Three Diablos (2011) BDRip-AVC | iPad

26 | 2

242.69 МБ




Вы не можете начинать темы
Вы не можете отвечать на сообщения
Вы не можете редактировать свои сообщения
Вы не можете удалять свои сообщения
Вы не можете добавлять вложения

Перейти:  
Для Мосгорсуда, Роскомнадзора и рекламодателей: mosgorsud-torrent[собачка]yandex.ru
 Вход
ppkBB3cker v.2 © 2008-2014 @ PPK
[ Time : 0.042s | 14 Queries | GZIP : Off ]

Торрент трекер RUTOR.IN, Не можете зайти на rutor.org? Какой новый адрес рутор? Какое зеркало рутор? Не работает rutor.org и зеркала? Тогда наш торрент специально для вас. Rutor.in неофициальное зеркало rutor. В случае если у Вас заблокирован rutor или вдруг Вы не можете на него зайти, то Вы без труда сможете скачать бесплатно и без рекламы последние новинки кино, игр, сериалов и прочего у нас, на Rutor.in. Не нужно использовать прокси, чтобы зайти на рутор, достаточно воспользоваться нашим ресурсом. Все новые фильмы, игры, сериалы, книги и музыка за 2013 и 2014 годы через торрент бесплатно. Скачивайте фильмы в хорошем качестве, игры для пк, xbox, playstation без регистрации. У нас вы найдете новые Зарубежные сериалы и Русские сериалы 2013, 2014, 2015 годов. Оставайтесь с нами, качайте любимые фильмы, игры, сериалы, книги и музыку.