img image001 image001 image001 image001 image001 image001 image001 image001 image001 image001 image001 image001 image001 image001 image001

Planets Sun Sun Sun
Статистика раздачи
Автор: Снежана | Размер: 749.62 МБ | Добавлен: 27 июл 2013
Раздают: 56    Качают: 10
Скачать торрент
Скачать торрент
Описание торрента

СообщениеДобавлено: 27 июл 2013 

#77

Информация о фильме
Название: Монстры против пришельцев
Оригинальное название: Monsters vs Aliens
Год выхода: 2009
Жанр: мультфильм, фантастика, боевик, комедия
Режиссер: Роб Леттерман / Rob Letterman, Конрад Вернон / Conrad Vernon
В ролях: Риз Уизерспун, Сет Роген, Хью Лори, Уилл Арнетт, Кифер Сазерленд, Рэйн Уилсон, Стефен Колбер, Пол Радд, Джули Уайт, Джефри Тэмбор

О фильме:
В Сюзан Мёрфи, девушку из Калифорнии, прямо в день ее свадьбы попадает метеорит, полный всякой дряни из космоса, в результате чего она вдруг начинает расти и вырастает до пятнадцати метров. Встревоженные появлением нового монстра, военные сразу берутся за дело: Сюзан отлавливают и увозят на секретную правительственную базу.

Там её переименовывают в Гигантику и запирают вместе с другими монстрами: гениальным, но насекомоголовым доктором наук Тараканом; брутальным рыбочеловеком по кличке Недостающее Звено; желеподобным и неубиваемым Б. О. Бом и стометровым Насекомозавром. Правда, их тюремное заключение длится недолго: на Землю нападает инопланетный робот, и отчаявшийся Президент, поддавшись уговорам генерала Воякера, отправляет разношерстную команду монстров на спасение планеты от неминуемой гибели.

Страна: США
Студия: DreamWorks Animation, Paramount Pictures
Продолжительность: 01:34:21
Перевод: Профессиональный (дублированный)

Файл
Кодек: XviD / MP3
Качество: HDRip
Видео: XviD, 672x288 (2.35:1), 23.976 fps, 973 Kbps (0.210 bit/pixel)
Звук: MP3, 48.0 KHz, 2 ch, 128 Kbps, CBR

General
Complete name : E:Monsters.vs.Aliens.2009.[dragomire].avi
Format : AVI
Format/Info : Audio Video Interleave
File size : 750 MiB
Duration : 1h 34mn
Overall bit rate : 1 111 Kbps
Writing application : VirtualDubMod 1.5.10.2 (build 2540/release)
Writing library : VirtualDubMod build 2540/release

Video
ID : 0
Format : MPEG-4 Visual
Format profile : Advanced Simple@L5
Format settings, BVOP : 1
Format settings, QPel : No
Format settings, GMC : No warppoints
Format settings, Matrix : Default (MPEG)
Codec ID : XVID
Codec ID/Hint : XviD
Duration : 1h 34mn
Bit rate : 973 Kbps
Width : 672 pixels
Height : 288 pixels
Display aspect ratio : 2.35:1
Frame rate : 23.976 fps
Color space : YUV
Chroma subsampling : 4:2:0
Bit depth : 8 bits
Scan type : Progressive
Compression mode : Lossy
Bits/(Pixel*Frame) : 0.210
Stream size : 657 MiB (88%)
Writing library : XviD 1.2.1 (UTC 2008-12-04)

Audio
ID : 1
Format : MPEG Audio
Format version : Version 1
Format profile : Layer 3
Codec ID : 55
Codec ID/Hint : MP3
Duration : 1h 34mn
Bit rate mode : Constant
Bit rate : 128 Kbps
Channel(s) : 2 channels
Sampling rate : 48.0 KHz
Compression mode : Lossy
Stream size : 86.4 MiB (12%)
Alignment : Aligned on interleaves
Interleave, duration : 42 ms (1.00 video frame)
Interleave, preload duration : 504 ms
Writing library : LAME3.98r
Encoding settings : -m s -V 4 -q 2 -lowpass 17 -b 128




   Похожие торренты   Торрент   Размер 
В этой теме нет новых непрочитанных сообщений. Монстры против Пришельцев - 3D / Monsters vs Aliens - 3D (2009) HDRip от ExKinoRay | 3D-video

21 | 4

1.35 ГБ

В этой теме нет новых непрочитанных сообщений. Монстры против пришельцев / Monsters vs Aliens (2009) BDRip-AVC | D

2 | 0

2.1 ГБ

В этой теме нет новых непрочитанных сообщений. Монстры против пришельцев / Monsters vs Aliens (2009) Blu-Ray Rip 1080p

13 | 4

5.37 ГБ

В этой теме нет новых непрочитанных сообщений. Монстры против пришельцев / Monsters vs Aliens (2009) BDRip-AVC | D

60 | 2

1.74 ГБ

В этой теме нет новых непрочитанных сообщений. Монстры против пришельцев / Monsters vs. Aliens (2009) DVD5

4 | 2

4.35 ГБ

В этой теме нет новых непрочитанных сообщений. Монстры против пришельцев / Monsters vs. Aliens:The Videogame (2009) РС

41 | 11

4.08 ГБ

В этой теме нет новых непрочитанных сообщений. Монстры против пришельцев / Monsters vs Aliens (2009) BDRip 1080p

51 | 7

4.37 ГБ




Вы не можете начинать темы
Вы не можете отвечать на сообщения
Вы не можете редактировать свои сообщения
Вы не можете удалять свои сообщения
Вы не можете добавлять вложения

Перейти:  
Для Мосгорсуда, Роскомнадзора и рекламодателей: mosgorsud-torrent[собачка]yandex.ru
 Вход
ppkBB3cker v.2 © 2008-2014 @ PPK
[ Time : 0.990s | 15 Queries | GZIP : Off ]

cron