img image001 image001 image001 image001 image001 image001 image001 image001 image001 image001 image001 image001 image001 image001 image001

Planets Sun Sun Sun
Статистика раздачи
Автор: Снежана | Размер: 9.87 ГБ | Добавлен: 27 июл 2013
Раздают: 5    Качают: 2
Скачать торрент
Скачать торрент
Описание торрента

СообщениеДобавлено: 27 июл 2013 

#77

Информация о фильме:
Название: Делай ноги 2
Оригинальное название: Happy Feet Two
Год выхода: 2011
Жанр: мультфильм, комедия, семейный, музыка
Режиссер: Джордж Миллер
В ролях: Элайджа Вуд, Робин Уильямс, Хэнк Азария, Пинк, Брэд Питт, Мэтт Дэймон, София Вергара, Карлос Алазраки, Ломбардо Бойяр, Джефф Гарсиа и др.

О фильме: Неутомимый пингвин Мамбл, некогда покоривший своим блестящим танцорским талантом целое племя императорских пингвинов, стал отцом. Его малыш — Эрик, в точности такой же свободолюбивый и независимый, как и папа, но в своих амбициях и авантюрах, несмотря на свой юный возраст, уже способен дать хорошую фору отцу и всем окружающим.



Выпущено: Австралия, Warner Bros. Pictures
Продолжительность: 01:39:29
Озвучивание: Дублированное [лицензия]

Файл
Формат: MKV
Качество: BDRip 1080p | 3D-Video
Видео: 1920х1080p / 23,976 fps / 12.8 Mbps
Аудио 1: Russian: AC3 / 48 KHz / 5.1 ch / 448 Kbps
Аудио 2: English: AC3 / 48 KHz / 5.1 ch / 640 Kbps
Субтитры: Отсутствуют
Скачать: Сэмпл


General
UniqueID : 182262178180509137473471440265844801320 (0x891E6B2DDF5A9F98A765C309B2E2BF28)
Complete name : F:DownloadsHappyFeetTwo(3D)2011.halfOU(ash61).mkv
Format : Matroska
File size : 9.87 GiB
Duration : 1h 39mn
Overall bit rate : 14.2 Mbps
Movie name : Happy Feet Two (3D) 2011 (Ash61)
Encoded date : UTC 2012-03-01 07:33:26
Writing application : mkvmerge v3.4.0 ('Rapunzel') сборка от May 15 2010 09:38:20
Writing library : libebml v0.8.0 + libmatroska v0.9.0

Video
ID : 1
Format : AVC
Format/Info : Advanced Video Codec
Format profile : High@L4.1
Format settings, CABAC : Yes
Format settings, ReFrames : 4 frames
Codec ID : V_MPEG4/ISO/AVC
Duration : 1h 39mn
Bit rate : 12.8 Mbps
Width : 1 920 pixels
Height : 1 080 pixels
Display aspect ratio : 16:9
Frame rate : 23.976 fps
Color space : YUV
Chroma subsampling : 4:2:0
Bit depth : 8 bits
Scan type : Progressive
Bits/(Pixel*Frame) : 0.258
Stream size : 8.92 GiB (90%)
Title : BDrip by Ash61
Writing library : x264 core 119 r2106 07efeb4
Encoding settings : cabac=1 / ref=4 / deblock=1:-3:-3 / analyse=0x3:0x113 / me=umh / subme=9 / psy=1 / psy_rd=1.00:0.15 / mixed_ref=1 / me_range=16 / chroma_me=1 / trellis=2 / 8x8dct=1 / cqm=0 / deadzone=21,11 / fast_pskip=1 / chroma_qp_offset=-3 / threads=3 / sliced_threads=0 / nr=0 / decimate=1 / interlaced=0 / bluray_compat=0 / constrained_intra=0 / bframes=6 / b_pyramid=2 / b_adapt=2 / b_bias=0 / direct=3 / weightb=1 / open_gop=0 / weightp=2 / keyint=250 / keyint_min=23 / scenecut=40 / intra_refresh=0 / rc_lookahead=60 / rc=crf / mbtree=1 / crf=17.0 / qcomp=0.70 / qpmin=0 / qpmax=69 / qpstep=4 / vbv_maxrate=40000 / vbv_bufsize=40000 / crf_max=0.0 / nal_hrd=none / ip_ratio=1.40 / aq=1:0.70

Audio #1
ID : 2
Format : AC-3
Format/Info : Audio Coding 3
Mode extension : CM (complete main)
Codec ID : A_AC3
Duration : 1h 39mn
Bit rate mode : Constant
Bit rate : 448 Kbps
Channel(s) : 6 channels
Channel positions : Front: L C R, Side: L R, LFE
Sampling rate : 48.0 KHz
Bit depth : 16 bits
Compression mode : Lossy
Stream size : 319 MiB (3%)
Title : Дубляж
Language : Russian

Audio #2
ID : 3
Format : AC-3
Format/Info : Audio Coding 3
Mode extension : CM (complete main)
Codec ID : A_AC3
Duration : 1h 39mn
Bit rate mode : Constant
Bit rate : 640 Kbps
Channel(s) : 6 channels
Channel positions : Front: L C R, Side: L R, LFE
Sampling rate : 48.0 KHz
Bit depth : 16 bits
Compression mode : Lossy
Stream size : 455 MiB (5%)
Language : English

Menu
00:00:00.000 : :1
00:11:01.578 : :2
00:19:03.184 : :3
00:29:16.755 : :4
00:39:12.350 : :5
00:49:39.727 : :6
00:58:26.461 : :7
01:09:52.105 : :8
01:19:59.920 : :9
01:30:29.924 : :10


Скриншоты





   Похожие торренты   Торрент   Размер 
В этой теме нет новых непрочитанных сообщений. Делай ноги 2 / Happy Feet Two (2011) BDRip 1080p

39 | 10

4.37 ГБ

В этой теме нет новых непрочитанных сообщений. Делай ноги / Happy Feet (2006) BDRip 1080p

73 | 7

4.37 ГБ

В этой теме нет новых непрочитанных сообщений. Делай ноги / Happy Feet (2006) HDRip от HQ-VIDEO

32 | 34

2.04 ГБ

В этой теме нет новых непрочитанных сообщений. Делай ноги 2 / Happy Feet Two (2011) BDRip 720р от SuperMin | D

49 | 6

3.93 ГБ

В этой теме нет новых непрочитанных сообщений. Делай ноги 2 / Happy Feet Two (2011) BDRip 720p by ELiTE

0 | 2

6.48 ГБ

В этой теме нет новых непрочитанных сообщений. OST - Делай ноги 2 / Happy Feet Two from AGR (2011) MP3

3 | 4

169.39 МБ

В этой теме нет новых непрочитанных сообщений. Делай ноги 2 / Happy Feet Two (2011) DVD5

2 | 3

4.35 ГБ




Вы не можете начинать темы
Вы не можете отвечать на сообщения
Вы не можете редактировать свои сообщения
Вы не можете удалять свои сообщения
Вы не можете добавлять вложения

Перейти:  
Для Мосгорсуда, Роскомнадзора и рекламодателей: mosgorsud-torrent[собачка]yandex.ru
 Вход
ppkBB3cker v.2 © 2008-2014 @ PPK
[ Time : 0.033s | 15 Queries | GZIP : Off ]

cron