img image001 image001 image001 image001 image001 image001 image001 image001 image001 image001 image001 image001 image001 image001 image001

Planets Sun Sun Sun
Статистика раздачи
Автор: Снежана | Размер: 4.33 ГБ | Добавлен: 27 июл 2013
Раздают: 3    Качают: 2
Скачать торрент
Скачать торрент
Описание торрента

СообщениеДобавлено: 27 июл 2013 

Кот в сапогах / Puss in Boots (2011) DVD5



Информация о мультфильме
Название: Кот в сапогах
Оригинальное название: Puss in Boots
Год выхода: 2011
Слоган: «А до Шрэка был…»
Жанр: мультфильм, комедия, приключения, семейный
Режиссер: Крис Миллер
Роли озвучивали: Антонио Бандерас, Сальма Хайек, Зак Галифианакис, Билли Боб Торнтон, Эми Седарис, Констанс Мари, Гильермо дель Торо, Рич Дитль, Райан Крего, Том Вилер
Роли дублировали: Всеволод Кузнецов, Татьяна Шитова, Диомид Виноградов, Владимир Зайцев, Марина Бакина

Описание: Мечи пересекутся и сердца будут разбиты в приключениях с одним из самых любимых персонажей из Шрэка — котом в сапогах. Это удалая поездка ранних лет кота в сапогах, когда он объединяется с умным Шалтай-Болтаем и сообразительной Кисой, чтобы украсть знаменитую Гусыню, несущую золотые яйца.


Страна: США
Студия: DreamWorks Animation
Время: 01:26:33
Перевод: Профессиональный (дублированный)

Файл
Кодек: MPEG-2
Качество: DVD5
Видео: 720x576@1024x576 (PAL 16:9), 25 fps, 5715 kbps
Аудио #1: AC3, 2 ch, 224 kbps | Украинский
Аудио #2: AC3, 6 ch, 448 kbps | Русский
Субтитры: Русские, Английские
Семпл: скачать

Title: Кот в сапогах DVD5
Size: 4.33 Gb ( 4 540 274,00 KBytes ) - DVD-5
Enabled regions: 1, 2, 3, 4, 5, 6, 7, 8

VTS_01 :
Play Length: 01:26:33
Video: PAL 16:9 (720x576) VBR, Auto Letterboxed
Audio:
Ukrainian (Dolby AC3, 2 ch)
Russian (Dolby AC3, 6 ch)
Subtitles:
English
Not specified
Общее
Имя : VTS_01_1.VOB
Формат : MPEG-PS
Размер файла : 1000 Мбайт
Продолжительность : 21 м.
Режим общего битрейта : Переменный
Общий поток : 6517 Кбит/сек

Видео
Идентификатор : 224 (0xE0)
Формат : MPEG Video
Версия формата : Version 2
Профиль формата : Main@Main
Параметр BVOP формата : Да
Параметр матрицы формата : Выборочная
Продолжительность : 21 м.
Вид битрейта : Переменный
Битрейт : 5715 Кбит/сек
Максимальный битрейт : 8000 Кбит/сек
Ширина : 720 пикселей
Высота : 576 пикселей
Соотношение сторон : 16:9
Частота кадров : 25,000 кадров/сек
Стандарт вещания : PAL
Цветовое пространство : YUV
Субдискретизация насыщенности : 4:2:0
Битовая глубина : 8 бит
Тип развёртки : Прогрессивная
Метод сжатия : С потерями
Бит/(Пиксели*Кадры) : 0.551
Размер потока : 877 Мбайт (88%)

Аудио #1
Идентификатор : 189 (0xBD)-128 (0x80)
Формат : AC-3
Формат/Информация : Audio Coding 3
Расширение режима : CM (complete main)
Режим смешивания : DVD-Video
Продолжительность : 21 м.
Вид битрейта : Постоянный
Битрейт : 224 Кбит/сек
Каналы : 2 канала
Расположение каналов : Front: L R
Частота : 48,0 КГц
Битовая глубина : 16 бит
Метод сжатия : С потерями
Размер потока : 34,4 Мбайт (3%)

Аудио #2
Идентификатор : 189 (0xBD)-129 (0x81)
Формат : AC-3
Формат/Информация : Audio Coding 3
Расширение режима : CM (complete main)
Режим смешивания : DVD-Video
Продолжительность : 21 м.
Вид битрейта : Постоянный
Битрейт : 448 Кбит/сек
Каналы : 6 каналов
Расположение каналов : Front: L C R, Side: L R, LFE
Частота : 48,0 КГц
Битовая глубина : 16 бит
Метод сжатия : С потерями
Размер потока : 68,7 Мбайт (7%)

Текст #1
Идентификатор : 189 (0xBD)-32 (0x20)
Формат : RLE
Формат/Информация : Run-length encoding
Режим смешивания : DVD-Video

Текст #2
Идентификатор : 189 (0xBD)-33 (0x21)
Формат : RLE
Формат/Информация : Run-length encoding
Режим смешивания : DVD-Video

Текст #3
Идентификатор : 189 (0xBD)-34 (0x22)
Формат : RLE
Формат/Информация : Run-length encoding
Режим смешивания : DVD-Video

Текст #4
Идентификатор : 189 (0xBD)-35 (0x23)
Формат : RLE
Формат/Информация : Run-length encoding
Режим смешивания : DVD-Video

[*]Клятва Шалтая-Болтая и Кота: «Первое правило — не говорить о Бобовом клубе. Второе правило — никогда не говорить о Бобовом клубе» — является прямой отсылкой к культовому фильму «Бойцовский клуб» Дэвида Финчера (1999 год).



   Похожие торренты   Торрент   Размер 
В этой теме нет новых непрочитанных сообщений. Кот в сапогах / Puss in Boots (2011) BDRemux

4 | 3

25.14 ГБ

В этой теме нет новых непрочитанных сообщений. OST - Кот в сапогах / Puss in Boots from AGR (Unofficial) (2011) MP3

41 | 3

153.03 МБ

В этой теме нет новых непрочитанных сообщений. Кот в сапогах / Puss in Boots (2011) BDRip от HQCLUB

577 | 15

1.45 ГБ

В этой теме нет новых непрочитанных сообщений. Кот в сапогах / Puss in Boots (2011) BDRip 1080p

25 | 10

6.3 ГБ

В этой теме нет новых непрочитанных сообщений. Кот в сапогах / Puss in Boots (2011) BDRip-AVC | iPad

42 | 3

1.56 ГБ

В этой теме нет новых непрочитанных сообщений. Кот в сапогах / Puss in Boots (2011) DVD9 | Лицензия

2 | 2

7.03 ГБ

В этой теме нет новых непрочитанных сообщений. Кот в сапогах / Puss in Boots (2011) BDRip 720p

17 | 5

3.24 ГБ




Вы не можете начинать темы
Вы не можете отвечать на сообщения
Вы не можете редактировать свои сообщения
Вы не можете удалять свои сообщения
Вы не можете добавлять вложения

Перейти:  
Для Мосгорсуда, Роскомнадзора и рекламодателей: mosgorsud-torrent[собачка]yandex.ru
 Вход
ppkBB3cker v.2 © 2008-2014 @ PPK
[ Time : 0.031s | 15 Queries | GZIP : Off ]

cron