img image001 image001 image001 image001 image001 image001 image001 image001 image001 image001 image001 image001 image001 image001 image001 image001

Planets Sun Sun Sun
Статистика раздачи
Автор: Снежана | Размер: 4.37 ГБ | Добавлен: 27 июл 2013
Раздают: 71    Качают: 12
Скачать торрент
Скачать торрент
Описание торрента

СообщениеДобавлено: 27 июл 2013 

#77

Информация о фильме
Название: Кот в сапогах
Оригинальное название: Puss in Boots
Год выхода: 2011
Жанр: мультфильм, комедия, приключения, семейный
Режиссер: Крис Миллер
В ролях: Антонио Бандерас, Сальма Хайек, Зак Галифианакис, Билли Боб Торнтон, Эми Седарис, Констанс Мари, Гильермо дель Торо, Майк Митчел, Рич Дитль, Райан Крего

О фильме: Мечи пересекутся и сердца будут разбиты в приключениях с одним из самых любимых персонажей из Шрэка — котом в сапогах. Это удалая поездка ранних лет кота в сапогах, когда он объединяется с умным Шалтай-Болтаем и сообразительной Кисой, чтобы украсть знаменитую Гусыню, несущую золотые яйца.



Выпущено: DreamWorks Animation
Продолжительность: 01:30:14
Перевод: Дублированный

Файл
Кодек: x264
Качество: BDRip (источник: Blu-ray Disc)
Видео: 1920x816 (2,35:1), 23.976 fps, 5656 kbps
Аудио #1: AC-3, 6 ch, 640 kbps (Rus)
Аудио #2: AC-3, 6 ch, 640 kbps (Eng)
Субтитры: Русские (форс,полные), Английские
Скачать: сэмпл

Скриншоты

Общее
Уникальный идентификатор : 173051434307748026098588733711853711103 (0x82307E71E2870A79A0D0B85AE6DE6EFF)
Полное имя : Puss.in.Boots.2011.BDRip.1080p.Rus.Eng.mkv
Формат : Matroska
Версия формата : Version 2
Размер файла : 4,37 Гбайт
Продолжительность : 1 ч. 30 м.
Общий поток : 6938 Кбит/сек
Название фильма : Кот в сапогах / Puss in Boots (2011)
Дата кодирования : UTC 2012-03-18 01:55:24
Программа кодирования : mkvmerge v4.0.0 ('The Stars were mine') сборка от Jun 6 2010 16:18:42
Библиотека кодирования : libebml v1.0.0 + libmatroska v1.0.0

Видео
Идентификатор : 1
Формат : AVC
Формат/Информация : Advanced Video Codec
Профиль формата : High@L4.1
Параметр CABAC формата : Да
Параметр ReFrames формата : 5 кадров
Идентификатор кодека : V_MPEG4/ISO/AVC
Продолжительность : 1 ч. 30 м.
Битрейт : 5656 Кбит/сек
Ширина : 1920 пикселей
Высота : 816 пикселей
Соотношение сторон : 2,35:1
Частота кадров : 23,976 кадра/сек
Цветовое пространство : YUV
Субдискретизация насыщенности : 4:2:0
Битовая глубина : 8 бит
Тип развёртки : Прогрессивная
Бит/(Пиксели*Кадры) : 0.151
Размер потока : 3,48 Гбайт (80%)
Заголовок : Release by AlexKa
Библиотека кодирования : x264 core 122 r2184 5c85e0a
Настройки программы : cabac=1 / ref=5 / deblock=1:0:0 / analyse=0x3:0x133 / me=umh / subme=11 / psy=1 / psy_rd=1.00:0.00 / mixed_ref=1 / me_range=32 / chroma_me=1 / trellis=2 / 8x8dct=1 / cqm=0 / deadzone=21,11 / fast_pskip=0 / chroma_qp_offset=-2 / threads=12 / sliced_threads=0 / nr=0 / decimate=0 / interlaced=0 / bluray_compat=0 / constrained_intra=0 / bframes=3 / b_pyramid=2 / b_adapt=2 / b_bias=0 / direct=3 / weightb=1 / open_gop=0 / weightp=2 / keyint=240 / keyint_min=23 / scenecut=40 / intra_refresh=0 / rc_lookahead=60 / rc=2pass / mbtree=1 / bitrate=5656 / ratetol=1.0 / qcomp=0.60 / qpmin=0 / qpmax=69 / qpstep=4 / cplxblur=20.0 / qblur=0.5 / ip_ratio=1.40 / aq=1:1.00
Язык : English

Аудио #1
Идентификатор : 2
Формат : AC-3
Формат/Информация : Audio Coding 3
Расширение режима : CM (complete main)
Идентификатор кодека : A_AC3
Продолжительность : 1 ч. 30 м.
Вид битрейта : Постоянный
Битрейт : 640 Кбит/сек
Каналы : 6 каналов
Расположение каналов : Front: L C R, Side: L R, LFE
Частота : 48,0 КГц
Битовая глубина : 16 бит
Метод сжатия : С потерями
Размер потока : 413 Мбайт (9%)
Заголовок : Rus
Язык : Russian

Аудио #2
Идентификатор : 3
Формат : AC-3
Формат/Информация : Audio Coding 3
Расширение режима : CM (complete main)
Идентификатор кодека : A_AC3
Продолжительность : 1 ч. 30 м.
Вид битрейта : Постоянный
Битрейт : 640 Кбит/сек
Каналы : 6 каналов
Расположение каналов : Front: L C R, Side: L R, LFE
Частота : 48,0 КГц
Битовая глубина : 16 бит
Метод сжатия : С потерями
Размер потока : 413 Мбайт (9%)
Заголовок : Eng
Язык : English

Текст #1
Идентификатор : 4
Формат : UTF-8
Идентификатор кодека : S_TEXT/UTF8
Идентификатор кодека/Информация : UTF-8 Plain Text
Заголовок : Rus forced
Язык : Russian

Текст #2
Идентификатор : 5
Формат : UTF-8
Идентификатор кодека : S_TEXT/UTF8
Идентификатор кодека/Информация : UTF-8 Plain Text
Заголовок : Rus
Язык : Russian

Текст #3
Идентификатор : 6
Формат : UTF-8
Идентификатор кодека : S_TEXT/UTF8
Идентификатор кодека/Информация : UTF-8 Plain Text
Заголовок : Eng
Язык : English

Меню
00:00:00.000 : :Chapter 01
00:03:25.246 : :Chapter 02
00:07:20.148 : :Chapter 03
00:11:46.831 : :Chapter 04
00:15:53.369 : :Chapter 05
00:19:23.537 : :Chapter 06
00:25:58.348 : :Chapter 07
00:29:22.427 : :Chapter 08
00:34:06.461 : :Chapter 09
00:39:17.438 : :Chapter 10
00:44:12.107 : :Chapter 11
00:49:34.054 : :Chapter 12
00:54:05.951 : :Chapter 13
00:57:38.204 : :Chapter 14
01:03:05.990 : :Chapter 15
01:08:14.715 : :Chapter 16
01:16:51.773 : :Chapter 17
01:19:42.194 : :Chapter 18
01:30:14.283 : :Chapter 19
x264 [info]: frame I:1352 Avg QP:14.07 size:221282
x264 [info]: frame P:41594 Avg QP:17.51 size: 53263
x264 [info]: frame B:86872 Avg QP:20.74 size: 15117



   Похожие торренты   Торрент   Размер 
В этой теме нет новых непрочитанных сообщений. Кот в сапогах / Puss in Boots (2011) BDRip-AVC от HELLYWOOD | Лицензия

43 | 1

1.46 ГБ

В этой теме нет новых непрочитанных сообщений. Кот в Сапогах / Puss in Boots (2011) BDRip-720p | Дополнительные материалы

12 | 2

1.76 ГБ

В этой теме нет новых непрочитанных сообщений. Кот в сапогах: Три Чертенка / Puss in Boots: The Three Diablos (2011) BDRip 720 от SuperMin

420 | 8

387.79 МБ

В этой теме нет новых непрочитанных сообщений. Кот в сапогах / Puss in Boots (2011) BDRip 720p от Leonardo and Scarabey

447 | 73

2.46 ГБ

В этой теме нет новых непрочитанных сообщений. Кот в сапогах / Puss in Boots (2011) BDRip 720p от HELLYWOOD | Лицензия

9 | 0

4.37 ГБ

В этой теме нет новых непрочитанных сообщений. Кот в сапогах / Puss in Boots (1968) HDTVRip-AVC от SDIncorporation

24 | 0

315.19 МБ

В этой теме нет новых непрочитанных сообщений. Рождественские истории 4: Кот в сапогах / Christmas Stories 4: Puss in Boots CE (2015) РС

4275 | 106

1.35 ГБ




Вы не можете начинать темы
Вы не можете отвечать на сообщения
Вы не можете редактировать свои сообщения
Вы не можете удалять свои сообщения
Вы не можете добавлять вложения

Перейти:  
 Вход
ppkBB3cker v.2 © 2008-2014 @ PPK
[ Time : 0.047s | 17 Queries | GZIP : Off ]

cron