img image001 image001 image001 image001 image001 image001 image001 image001 image001 image001 image001 image001 image001 image001 image001

Planets Sun Sun Sun
Статистика раздачи
Автор: Снежана | Размер: 4.35 ГБ | Добавлен: 27 июл 2013
Раздают: 8    Качают: 3
Скачать торрент
Скачать торрент
Описание торрента

СообщениеДобавлено: 27 июл 2013 

#77

Информация о мультфильме:
Название: Тарзан
Оригинальное название: Tarzan
Год выхода: 1999
Жанр: мультфильм, драма, мелодрама, приключения, семейный
Режиссер: Крис Бак, Кевин Лима
В ролях: Брайан Блессид, Гленн Клоуз, Минни Драйвер, Тони Голдуин, Найджел Хоторн, Лэнс Хенриксен, Уэйн Найт, Алекс Д. Линц, Рози О’Доннелл, Бет Андерсон

О мультфильме:
Тарзан вырос среди горилл, в таинственных джунглях, где не ступала нога человека. Враждебное царство диких животных долго не хотело признавать хрупкого мальчика. Вскоре на глазах у всех слабый малыш превратился в храброго юношу и стал быстрее пантеры, сильнее тигра, зорче орла. Но когда Тарзан становится настоящим королем джунглей, происходит неожиданная встреча, которая полностью меняет его жизнь...



Выпущено: США / Walt Disney Pictures, Edgar Rice Burroughs Inc.
Продолжительность: 01:28:22
Озвучивание: Дублированное [лицензия]

Файл:
Формат: MKV
Качество: BDRip 720p
Видео: MPEG-4 AVC, 5500 Кбит/с, 1280x720, 23.976 кадр/с
Аудио: Русский (AC3, 6 ch, 640 Кбит/с), английский (AC3, 6 ch, 640 Кбит/с)
Скачать: Сэмпл

Format : Matroska
Format version : Version 2
File size : 4.35 GiB
Duration : 1h 31mn
Overall bit rate : 6 783 Kbps
Movie name :
Encoded date : UTC 2012-03-17 12:05:30
Writing application : mkvmerge v5.4.0 ('Piper') built on Mar 10 2012 13:34:39
Writing library : libebml v1.2.3 + libmatroska v1.3.0

Video
ID : 1
Format : AVC
Format/Info : Advanced Video Codec
Format profile : High@L4.1
Format settings, CABAC : Yes
Format settings, ReFrames : 9 frames
Codec ID : V_MPEG4/ISO/AVC
Duration : 1h 31mn
Bit rate : 5 500 Kbps
Width : 1 280 pixels
Height : 720 pixels
Display aspect ratio : 16:9
Frame rate : 23.976 fps
Color space : YUV
Chroma subsampling : 4:2:0
Bit depth : 8 bits
Scan type : Progressive
Bits/(Pixel*Frame) : 0.249
Stream size : 3.44 GiB (79%)
Writing library : x264 core 122 r2184 5c85e0a
Encoding settings : cabac=1 / ref=9 / deblock=1:-3:-3 / analyse=0x3:0x133 / me=umh / subme=11 / psy=1 / psy_rd=1.00:0.00 / mixed_ref=1 / me_range=32 / chroma_me=1 / trellis=2 / 8x8dct=1 / cqm=0 / deadzone=21,11 / fast_pskip=1 / chroma_qp_offset=-2 / threads=6 / sliced_threads=0 / nr=0 / decimate=1 / interlaced=0 / bluray_compat=0 / constrained_intra=0 / bframes=5 / b_pyramid=2 / b_adapt=2 / b_bias=0 / direct=2 / weightb=0 / open_gop=0 / weightp=2 / keyint=240 / keyint_min=23 / scenecut=40 / intra_refresh=0 / rc_lookahead=40 / rc=2pass / mbtree=1 / bitrate=5500 / ratetol=1.0 / qcomp=0.60 / qpmin=0 / qpmax=69 / qpstep=4 / cplxblur=20.0 / qblur=0.5 / ip_ratio=1.40 / aq=1:1.00 / zones=123814,132131,q=40
Language : English
Default : Yes
Forced : No

Audio #1
ID : 2
Format : AC-3
Format/Info : Audio Coding 3
Mode extension : CM (complete main)
Codec ID : A_AC3
Duration : 1h 31mn
Bit rate mode : Constant
Bit rate : 640 Kbps
Channel(s) : 6 channels
Channel positions : Front: L C R, Side: L R, LFE
Sampling rate : 48.0 KHz
Bit depth : 16 bits
Compression mode : Lossy
Stream size : 420 MiB (9%)
Language : Russian
Default : Yes
Forced : No

Audio #2
ID : 3
Format : AC-3
Format/Info : Audio Coding 3
Mode extension : CM (complete main)
Codec ID : A_AC3
Duration : 1h 31mn
Bit rate mode : Constant
Bit rate : 640 Kbps
Channel(s) : 6 channels
Channel positions : Front: L C R, Side: L R, LFE
Sampling rate : 48.0 KHz
Bit depth : 16 bits
Compression mode : Lossy
Stream size : 420 MiB (9%)
Language : English
Default : No
Forced : No

Menu
00:00:00.000 : :Chapter 01
00:03:21.201 : :Chapter 02
00:10:33.966 : :Chapter 03
00:14:19.775 : :Chapter 04
00:19:34.631 : :Chapter 05
00:22:39.941 : :Chapter 06
00:25:27.234 : :Chapter 07
00:30:40.588 : :Chapter 08
00:37:28.162 : :Chapter 09
00:41:28.819 : :Chapter 10
00:46:48.305 : :Chapter 11
00:50:14.803 : :Chapter 12
00:56:52.534 : :Chapter 13
01:03:23.841 : :Chapter 14
01:09:23.909 : :Chapter 15
01:14:08.277 : :Chapter 16
01:19:03.196 : :Chapter 17
01:22:25.565 : :Chapter 18


Скриншоты



Релиз-группа:



   Похожие торренты   Торрент   Размер 
В этой теме нет новых непрочитанных сообщений. Тарзан / Tarzan (1999) BDRip 720p от DJ _ Zum

14 | 3

2.19 ГБ

В этой теме нет новых непрочитанных сообщений. Тарзан / Tarzan (1999) BDRip 720p от FREEISLAND

93 | 4

2.69 ГБ

В этой теме нет новых непрочитанных сообщений. Тарзан / Tarzan (1999) BDRip 720p от Leonardo and Scarabey | D

262 | 14

2.55 ГБ

В этой теме нет новых непрочитанных сообщений. Тарзан / Tarzan (1999) BDRip от HQCLUB

171 | 21

1.45 ГБ

В этой теме нет новых непрочитанных сообщений. Тарзан / Tarzan (1999) BDRip от HELLYWOOD

117 | 14

1.45 ГБ

В этой теме нет новых непрочитанных сообщений. Тарзан / Tarzan (1999) BDRip 1080p

64 | 11

4.38 ГБ

В этой теме нет новых непрочитанных сообщений. Тарзан / Tarzan (1999) BDRip 1080p от HDCLUB

225 | 14

10.53 ГБ




Вы не можете начинать темы
Вы не можете отвечать на сообщения
Вы не можете редактировать свои сообщения
Вы не можете удалять свои сообщения
Вы не можете добавлять вложения

Перейти:  
Для Мосгорсуда, Роскомнадзора и рекламодателей: mosgorsud-torrent[собачка]yandex.ru
 Вход
ppkBB3cker v.2 © 2008-2014 @ PPK
[ Time : 0.045s | 15 Queries | GZIP : Off ]

Торрент трекер RUTOR.IN, Не можете зайти на rutor.org? Какой новый адрес рутор? Какое зеркало рутор? Не работает rutor.org и зеркала? Тогда наш торрент специально для вас. Rutor.in неофициальное зеркало rutor. В случае если у Вас заблокирован rutor или вдруг Вы не можете на него зайти, то Вы без труда сможете скачать бесплатно и без рекламы последние новинки кино, игр, сериалов и прочего у нас, на Rutor.in. Не нужно использовать прокси, чтобы зайти на рутор, достаточно воспользоваться нашим ресурсом. Все новые фильмы, игры, сериалы, книги и музыка за 2013 и 2014 годы через торрент бесплатно. Скачивайте фильмы в хорошем качестве, игры для пк, xbox, playstation без регистрации. У нас вы найдете новые Зарубежные сериалы и Русские сериалы 2013, 2014, 2015 годов. Оставайтесь с нами, качайте любимые фильмы, игры, сериалы, книги и музыку.
cron