img image001 image001 image001 image001 image001 image001 image001 image001 image001 image001 image001 image001 image001 image001 image001

Planets Sun Sun Sun
Статистика раздачи
Автор: Снежана | Размер: 2.69 ГБ | Добавлен: 27 июл 2013
Раздают: 93    Качают: 4
Скачать торрент
Скачать торрент
Описание торрента

СообщениеДобавлено: 27 июл 2013 

#77


Информация о фильме
Название: Тарзан
Оригинальное название: Tarzan
Год выхода: 1999
Жанр: мультфильм, драма, мелодрама, приключения, семейный, ...
Режиссер: Крис Бак, Кевин Лима
Роли озвучивали: Брайан Блессид, Гленн Клоуз, Минни Драйвер, Тони Голдуин, Найджел Хоторн, Лэнс Хенриксен, Уэйн Найт, Алекс Д. Линц, Рози О’Доннелл, Бет Андерсон, Джек Эйнджел, Джозеф Эштон, Боб Берген, Билли Бодин, Роджер Бампасс, Кэтрин Крессида, Джим Каммингс, Ария Ноэль Курзон, Тейлор Демпси,
Роли дублировали:Владимир Летенков, Елена Терновая, Татьяна Михалевкина, Александр Баргман, Александр Демьяненко и др.

О фильме:
Тарзан вырос среди горилл, в таинственных джунглях, где не ступала нога человека. Враждебное царство диких животных долго не хотело признавать хрупкого мальчика.

Вскоре на глазах у всех слабый малыш превратился в храброго юношу и стал быстрее пантеры, сильнее тигра, зорче орла. Но когда Тарзан становится настоящим королем джунглей, происходит неожиданная встреча, которая полностью меняет его жизнь…


Страна: США
Студия: Walt Disney Pictures
Продолжительность: 01:31:51
Перевод: Дублированный

Файл
Кодек: H.264
Качество: BDRip 720p
Видео: 2726 Кбит/сек, 1280*720 (16:9), в 23,976 кадра/сек, AVC (High@L4.1)
Звук:
Russian, 384 Кбит/сек, 48,0 КГц, 16 бит, 6 каналов, AC-3 | дубляж
Russian, 384 Кбит/сек, 48,0 КГц, 16 бит, 5 каналов, AC-3 | AVO.Гаврилов
Russian, 448 Кбит/сек, 48,0 КГц, 16 бит, 5 каналов, AC-3 | AVO.Живов
English, 384 Кбит/сек, 48,0 КГц, 16 бит, 6 каналов, AC-3 | оригинал
Субтитры: Russian, English (srt)

x264 [info]: frame I:1336 Avg QP:16.46 size:102206
x264 [info]: frame P:36281 Avg QP:19.60 size: 26173
x264 [info]: frame B:89505 Avg QP:21.61 size: 8051
Общее
Уникальный идентификатор : 202374496782487714158567580223386107365 (0x983FE90B9B90EA6A9912EB26ED6F3DE5)
Полное имя : E:торрентTarzan (1999)BDRip720p.mkv
Формат : Matroska
Версия формата : Version 2
Размер файла : 2,69 Гбайт
Продолжительность : 1 ч. 31 м.
Общий поток : 4194 Кбит/сек
Дата кодирования : UTC 2012-03-21 22:16:32
Программа кодирования : mkvmerge v5.4.0 ('Piper') built on Mar 10 2012 13:34:39
Библиотека кодирования : libebml v1.2.3 + libmatroska v1.3.0

Видео
Идентификатор : 1
Формат : AVC
Формат/Информация : Advanced Video Codec
Профиль формата : High@L4.1
Параметр CABAC формата : Да
Параметр ReFrames формата : 9 кадров
Идентификатор кодека : V_MPEG4/ISO/AVC
Продолжительность : 1 ч. 31 м.
Битрейт : 2510 Кбит/сек
Номинальный битрейт : 2726 Кбит/сек
Ширина : 1280 пикселей
Высота : 720 пикселей
Соотношение сторон : 16:9
Частота кадров : 23,976 кадра/сек
Цветовое пространство : YUV
Субдискретизация насыщенности : 4:2:0
Битовая глубина : 8 бит
Тип развёртки : Прогрессивная
Бит/(Пиксели*Кадры) : 0.114
Размер потока : 1,61 Гбайт (60%)
Библиотека кодирования : x264 core 122 r2184 5c85e0a
Настройки программы : cabac=1 / ref=9 / deblock=1:1:1 / analyse=0x3:0x113 / me=umh / subme=10 / psy=1 / psy_rd=0.80:0.10 / mixed_ref=1 / me_range=32 / chroma_me=1 / trellis=2 / 8x8dct=1 / cqm=0 / deadzone=21,11 / fast_pskip=0 / chroma_qp_offset=-3 / threads=6 / sliced_threads=0 / nr=0 / decimate=1 / interlaced=0 / bluray_compat=0 / constrained_intra=0 / bframes=8 / b_pyramid=2 / b_adapt=2 / b_bias=0 / direct=3 / weightb=1 / open_gop=0 / weightp=2 / keyint=230 / keyint_min=22 / scenecut=40 / intra_refresh=0 / rc=2pass / mbtree=0 / bitrate=2726 / ratetol=1.0 / qcomp=0.70 / qpmin=0 / qpmax=69 / qpstep=4 / cplxblur=20.0 / qblur=0.5 / ip_ratio=1.40 / pb_ratio=1.30 / aq=2:0.60
Язык : English
Основные цвета : BT.709-5, BT.1361, IEC 61966-2-4, SMPTE RP177
Характеристики трансфера : BT.709-5, BT.1361
Коэффициенты матрицы : BT.709-5, BT.1361, IEC 61966-2-4 709, SMPTE RP177

Аудио #1
Идентификатор : 2
Формат : AC-3
Формат/Информация : Audio Coding 3
Расширение режима : CM (complete main)
Идентификатор кодека : A_AC3
Продолжительность : 1 ч. 31 м.
Вид битрейта : Постоянный
Битрейт : 384 Кбит/сек
Каналы : 6 каналов
Расположение каналов : Front: L C R, Side: L R, LFE
Частота : 48,0 КГц
Битовая глубина : 16 бит
Метод сжатия : С потерями
Размер потока : 252 Мбайт (9%)
Заголовок : Дубляж
Язык : Russian

Аудио #2
Идентификатор : 3
Формат : AC-3
Формат/Информация : Audio Coding 3
Расширение режима : CM (complete main)
Идентификатор кодека : A_AC3
Продолжительность : 1 ч. 31 м.
Вид битрейта : Постоянный
Битрейт : 384 Кбит/сек
Каналы : 5 каналов
Расположение каналов : Front: L C R, Side: L R
Частота : 48,0 КГц
Битовая глубина : 16 бит
Метод сжатия : С потерями
Размер потока : 252 Мбайт (9%)
Заголовок : AVO.GAVRILOV
Язык : Russian

Аудио #3
Идентификатор : 4
Формат : AC-3
Формат/Информация : Audio Coding 3
Расширение режима : CM (complete main)
Идентификатор кодека : A_AC3
Продолжительность : 1 ч. 31 м.
Вид битрейта : Постоянный
Битрейт : 448 Кбит/сек
Каналы : 5 каналов
Расположение каналов : Front: L C R, Side: L R
Частота : 48,0 КГц
Битовая глубина : 16 бит
Метод сжатия : С потерями
Размер потока : 294 Мбайт (11%)
Заголовок : AVO.ZHIVOV
Язык : Russian

Аудио #4
Идентификатор : 5
Формат : AC-3
Формат/Информация : Audio Coding 3
Расширение режима : CM (complete main)
Идентификатор кодека : A_AC3
Продолжительность : 1 ч. 31 м.
Вид битрейта : Постоянный
Битрейт : 384 Кбит/сек
Каналы : 6 каналов
Расположение каналов : Front: L C R, Side: L R, LFE
Частота : 48,0 КГц
Битовая глубина : 16 бит
Метод сжатия : С потерями
Размер потока : 252 Мбайт (9%)
Язык : English

Текст #1
Идентификатор : 6
Формат : UTF-8
Идентификатор кодека : S_TEXT/UTF8
Идентификатор кодека/Информация : UTF-8 Plain Text
Язык : Russian

Текст #2
Идентификатор : 7
Формат : UTF-8
Идентификатор кодека : S_TEXT/UTF8
Идентификатор кодека/Информация : UTF-8 Plain Text
Язык : English

Меню
00:00:00.000 : en:Chapter 01
00:03:21.201 : en:Chapter 02
00:10:33.966 : en:Chapter 03
00:14:19.775 : en:Chapter 04
00:19:34.631 : en:Chapter 05
00:22:39.941 : en:Chapter 06
00:25:27.234 : en:Chapter 07
00:30:40.588 : en:Chapter 08
00:37:28.162 : en:Chapter 09
00:41:28.819 : en:Chapter 10
00:46:48.305 : en:Chapter 11
00:50:14.803 : en:Chapter 12
00:56:52.534 : en:Chapter 13
01:03:23.841 : en:Chapter 14
01:09:23.909 : en:Chapter 15
01:14:08.277 : en:Chapter 16
01:19:03.196 : en:Chapter 17
01:22:25.565 : en:Chapter 18
01:28:21.629 : en:Chapter 19



Релиз от:



   Похожие торренты   Торрент   Размер 
В этой теме нет новых непрочитанных сообщений. Тарзан / Tarzan (1999) BDRip 1080p [Hi10P] от FREEISLAND

19 | 4

2.18 ГБ

В этой теме нет новых непрочитанных сообщений. Тарзан / Tarzan (1999) BDRip 720p

8 | 3

4.35 ГБ

В этой теме нет новых непрочитанных сообщений. Тарзан / Tarzan (1999) BDRip 720p от DJ _ Zum

14 | 3

2.19 ГБ

В этой теме нет новых непрочитанных сообщений. Тарзан / Tarzan (1999) BDRip 720p от Leonardo and Scarabey | D

196 | 12

2.55 ГБ

В этой теме нет новых непрочитанных сообщений. Тарзан / Tarzan (1999) BDRip 1080p

64 | 11

4.38 ГБ

В этой теме нет новых непрочитанных сообщений. Тарзан / Tarzan (1999) BDRip от HQCLUB

171 | 21

1.45 ГБ

В этой теме нет новых непрочитанных сообщений. Тарзан / Tarzan (1999) BDRip от HELLYWOOD

117 | 14

1.45 ГБ




Вы не можете начинать темы
Вы не можете отвечать на сообщения
Вы не можете редактировать свои сообщения
Вы не можете удалять свои сообщения
Вы не можете добавлять вложения

Перейти:  
Для Мосгорсуда, Роскомнадзора и рекламодателей: mosgorsud-torrent[собачка]yandex.ru
 Вход
ppkBB3cker v.2 © 2008-2014 @ PPK
[ Time : 0.478s | 14 Queries | GZIP : Off ]

Торрент трекер RUTOR.IN, Не можете зайти на rutor.org? Какой новый адрес рутор? Какое зеркало рутор? Не работает rutor.org и зеркала? Тогда наш торрент специально для вас. Rutor.in неофициальное зеркало rutor. В случае если у Вас заблокирован rutor или вдруг Вы не можете на него зайти, то Вы без труда сможете скачать бесплатно и без рекламы последние новинки кино, игр, сериалов и прочего у нас, на Rutor.in. Не нужно использовать прокси, чтобы зайти на рутор, достаточно воспользоваться нашим ресурсом. Все новые фильмы, игры, сериалы, книги и музыка за 2013 и 2014 годы через торрент бесплатно. Скачивайте фильмы в хорошем качестве, игры для пк, xbox, playstation без регистрации. У нас вы найдете новые Зарубежные сериалы и Русские сериалы 2013, 2014, 2015 годов. Оставайтесь с нами, качайте любимые фильмы, игры, сериалы, книги и музыку.