img image001 image001 image001 image001 image001 image001 image001 image001 image001 image001 image001 image001 image001 image001 image001

Planets Sun Sun Sun
Статистика раздачи
Автор: Снежана | Размер: 2.18 ГБ | Добавлен: 27 июл 2013
Раздают: 19    Качают: 4
Скачать торрент
Скачать торрент
Описание торрента

СообщениеДобавлено: 27 июл 2013 

Тарзан / Tarzan
(1999)
BDRip 1080p [Hi10P] от FREEISLAND



Год выхода: 1999
Жанр: мультфильм, приключения, семейный
Режиссер: Крис Бак, Кевин Лима
Роли озвучивали: Брайан Блессид, Гленн Клоуз, Минни Драйвер, Тони Голдуин, Найджел Хоторн, Лэнс Хенриксен, Уэйн Найт, Алекс Д. Линц, Рози О’Доннелл, Бет Андерсон

Описание:
Тарзан вырос среди горилл, в таинственных джунглях, где не ступала нога человека. Враждебное царство диких животных долго не хотело признавать хрупкого мальчика. Вскоре на глазах у всех слабый малыш превратился в храброго юношу и стал быстрее пантеры, сильнее тигра, зорче орла. Но когда Тарзан становится настоящим королем джунглей, происходит неожиданная встреча, которая полностью меняет его жизнь...



Официальный сайт

Страна: США
Выпущено: Walt Disney Pictures, Edgar Rice Burroughs Inc.
Продолжительность: 1 ч. 22 м. 11 с. (титры обрезаны в целях экономии битрейта)
Перевод: Дублированный [лицензия]
Оригинальная разбивка на главы: сохранена

Качество: BDRip 1080p Hi10P (SSIM: 0.9844453)
Исходник: Blu-Ray Disk
Контейнер: MKV
Видео кодек: x264 High10@L5.1 (не совместим с большинством бытовых плееров)
Аудио кодек: AC3
Видео: AVC at 3155 Кбит/сек, 1920 x 1080 (1.778) at 23.976 fps
Аудио: AC-3 at 640 Кбит/сек, 6 каналов, 48,0 КГц
Субтитры 1: русские, форисированные, на места без перевода (SRT/UTF-8)
Субтитры 2: русские, полные, на дубляж (SRT/UTF-8)


Общее
Уникальный идентификатор : 235432520228589866589331366400418763366 (0xB11EA7706A740B84B193100B92C9D266)
Полное имя : Тарзан [Tarzan] (1999) BDRip-Hi10P 1080p.mkv
Формат : Matroska
Версия формата : Version 2
Размер файла : 2,18 Гбайт
Продолжительность : 1 ч. 22 м.
Общий поток : 3797 Кбит/сек
Название фильма : релиз от FREEISLAND.ORG
Дата кодирования : UTC 2012-03-24 18:22:42
Программа кодирования : mkvmerge v5.4.0 ('Piper') built on Mar 10 2012 13:34:39
Библиотека кодирования : libebml v1.2.3 + libmatroska v1.3.0

Видео
Идентификатор : 1
Формат : AVC
Формат/Информация : Advanced Video Codec
Профиль формата : High 10@L5.1
Параметр CABAC формата : Да
Параметр ReFrames формата : 16 кадров
Идентификатор кодека : V_MPEG4/ISO/AVC
Продолжительность : 1 ч. 22 м.
Битрейт : 3155 Кбит/сек
Ширина : 1920 пикселей
Высота : 1080 пикселей
Соотношение сторон : 16:9
Частота кадров : 23,976 кадра/сек
Цветовое пространство : YUV
Субдискретизация насыщенности : 4:2:0
Битовая глубина : 10 бит
Тип развёртки : Прогрессивная
Бит/(Пиксели*Кадры) : 0.063
Размер потока : 1,77 Гбайт (81%)
Библиотека кодирования : x264 core 122 r2184+659+27 9392fd0 tMod [10-bit@all X86_64]
Настройки программы : cabac=1 / ref=16 / deblock=1:1:1 / analyse=0x3:0x133 / me=umh / subme=11 / psy=1 / fade_compensate=0.00 / psy_rd=1.00:0.00 / mixed_ref=1 / me_range=64 / chroma_me=1 / trellis=2 / 8x8dct=1 / cqm=0 / deadzone=21,11 / fast_pskip=0 / chroma_qp_offset=-2 / threads=12 / sliced_threads=0 / nr=0 / decimate=1 / interlaced=0 / bluray_compat=0 / constrained_intra=0 / fgo=0 / bframes=10 / b_pyramid=2 / b_adapt=2 / b_bias=0 / direct=3 / weightb=1 / open_gop=0 / weightp=2 / keyint=240 / keyint_min=24 / scenecut=40 / intra_refresh=0 / rc=2pass / mbtree=0 / bitrate=3155 / ratetol=1.0 / qcomp=1.00 / qpmin=0 / qpmax=48 / qpstep=4 / cplxblur=20.0 / qblur=0.5 / ip_ratio=1.40 / pb_ratio=1.30 / aq=3:1.00
Default : Да
Forced : Нет
Основные цвета : BT.709-5, BT.1361, IEC 61966-2-4, SMPTE RP177
Характеристики трансфера : BT.709-5, BT.1361
Коэффициенты матрицы : BT.709-5, BT.1361, IEC 61966-2-4 709, SMPTE RP177

Аудио
Идентификатор : 2
Формат : AC-3
Формат/Информация : Audio Coding 3
Расширение режима : CM (complete main)
Идентификатор кодека : A_AC3
Продолжительность : 1 ч. 22 м.
Вид битрейта : Постоянный
Битрейт : 640 Кбит/сек
Каналы : 6 каналов
Расположение каналов : Front: L C R, Side: L R, LFE
Частота : 48,0 КГц
Битовая глубина : 16 бит
Метод сжатия : С потерями
Размер потока : 376 Мбайт (17%)
Заголовок : DUB | дубляж
Язык : Russian
Default : Да
Forced : Нет

Текст #1
Идентификатор : 3
Формат : UTF-8
Идентификатор кодека : S_TEXT/UTF8
Идентификатор кодека/Информация : UTF-8 Plain Text
Заголовок : на места без перевода
Язык : Russian
Default : Да
Forced : Да

Текст #2
Идентификатор : 4
Формат : UTF-8
Идентификатор кодека : S_TEXT/UTF8
Идентификатор кодека/Информация : UTF-8 Plain Text
Заголовок : полные на дубляж
Язык : Russian
Default : Нет
Forced : Нет

Меню
00:00:00.000 : :01
00:03:21.201 : :02
00:10:33.967 : :03
00:14:19.776 : :04
00:19:34.632 : :05
00:22:39.942 : :06
00:25:27.234 : :07
00:30:40.589 : :08
00:37:28.163 : :09
00:41:28.820 : :10
00:46:48.305 : :11
00:50:14.803 : :12
00:56:52.534 : :13
01:03:23.842 : :14
01:09:23.910 : :15
01:14:08.277 : :16
01:19:03.197 : :17
01:22:25.566 : :18

















Релиз от:

Если у вас возникают вопросы типа:
-почему у меня есть звук и отсутствует изображение?
-почему у меня рассыпается картинка?
-почему у меня картинка фонит синевой или зеленью?
-зачем и кому всё это нужно?
и тому подобные, читаем FAQ.
ссылка на FAQ запрещена правилами.

По этому, гуглим на тему спойлера (Что такое 10-ти битное видео (High 10 Profile - Hi10P), и как его смотреть?).



   Похожие торренты   Торрент   Размер 
В этой теме нет новых непрочитанных сообщений. Тарзан / Tarzan (1999) BDRip 720p от FREEISLAND

93 | 4

2.69 ГБ

В этой теме нет новых непрочитанных сообщений. Тарзан / Tarzan (1999) BDRip 1080p

64 | 11

4.38 ГБ

В этой теме нет новых непрочитанных сообщений. Тарзан / Tarzan (1999) BDRip 1080p от HDCLUB

225 | 14

10.53 ГБ

В этой теме нет новых непрочитанных сообщений. Тарзан / Tarzan (1999) BDRip 720p

8 | 3

4.35 ГБ

В этой теме нет новых непрочитанных сообщений. Тарзан / Tarzan (1999) BDRip от HELLYWOOD

117 | 14

1.45 ГБ

В этой теме нет новых непрочитанных сообщений. Тарзан / Tarzan (1999) BDRip 720p от DJ _ Zum

14 | 3

2.19 ГБ

В этой теме нет новых непрочитанных сообщений. Тарзан / Tarzan (1999) BDRip от HQCLUB

171 | 21

1.45 ГБ




Вы не можете начинать темы
Вы не можете отвечать на сообщения
Вы не можете редактировать свои сообщения
Вы не можете удалять свои сообщения
Вы не можете добавлять вложения

Перейти:  
Для Мосгорсуда, Роскомнадзора и рекламодателей: mosgorsud-torrent[собачка]yandex.ru
 Вход
ppkBB3cker v.2 © 2008-2014 @ PPK
[ Time : 0.028s | 16 Queries | GZIP : Off ]

Торрент трекер RUTOR.IN, Не можете зайти на rutor.org? Какой новый адрес рутор? Какое зеркало рутор? Не работает rutor.org и зеркала? Тогда наш торрент специально для вас. Rutor.in неофициальное зеркало rutor. В случае если у Вас заблокирован rutor или вдруг Вы не можете на него зайти, то Вы без труда сможете скачать бесплатно и без рекламы последние новинки кино, игр, сериалов и прочего у нас, на Rutor.in. Не нужно использовать прокси, чтобы зайти на рутор, достаточно воспользоваться нашим ресурсом. Все новые фильмы, игры, сериалы, книги и музыка за 2013 и 2014 годы через торрент бесплатно. Скачивайте фильмы в хорошем качестве, игры для пк, xbox, playstation без регистрации. У нас вы найдете новые Зарубежные сериалы и Русские сериалы 2013, 2014, 2015 годов. Оставайтесь с нами, качайте любимые фильмы, игры, сериалы, книги и музыку.