img image001 image001 image001 image001 image001 image001 image001 image001 image001 image001 image001 image001 image001 image001 image001

Planets Sun Sun Sun
Статистика раздачи
Автор: Снежана | Размер: 4.38 ГБ | Добавлен: 27 июл 2013
Раздают: 46    Качают: 5
Скачать торрент
Скачать торрент
Описание торрента

СообщениеДобавлено: 27 июл 2013 

#77

Информация о фильме
Название: Приключения Десперо
Оригинальное название: The Tale of Despereaux
Год выхода: 2008
Жанр: мультфильм, фэнтези, комедия, приключения, семейный
Режиссер: Сэм Фелл, Роберт Стивенхейген
В главных ролях: Мэттью Бродерик, Дастин Хоффман, Эмма Уотсон, Трейси Уллмен, Кевин Клайн, Уильям Х. Мэйси, Стенли Туччи, Киаран Хиндс, Робби Колтрейн, Тони Хейл
Роли дублировали: Егор Бероев, Владимир Еремин, Маша Иващенко, Никита Прозоровский, Сергей Балабанов, Владимир Зайцев, Валентин Гафт, Михаил Георгиу, Михаил Тихонов, Ольга Зубкова, Борис Клюев, Александр Леньков, Анна Каменкова

О фильме: Это история о трёх существах, менее всего подходящих на роли героев — Мыши, предпочитающей читать книги, вместо того, чтобы есть их; Крысы, плетущей интриги ради того, чтобы навсегда покинуть сырую темницу; и лопоухой девочки — чьи судьбы переплетаются с неисповедимыми путями Принцессы.


Выпущено: США, Великобритания
Продолжительность: 01:33:35
Перевод: Дублированный + Оригинал

Файл
Кодек: x264
Качество: BDRip 1080p
Видео: 1920x816, 5412 Kbps, 23.976 fps
Аудио #1: AC-3, 6 ch, 640 kbps (Rus)
Аудио #2: AC-3, 6 ch, 640 kbps (Eng)
Cубтитры: нет

General
Unique ID : 234093162511672918400990666166285946810 (0xB01CB4015C310F24B57818BB3A78CFBA)
Complete name : Приключения Десперо.2008.BDRip.1080p.Rus.Eng.mkv
Format : Matroska
Format version : Version 2
File size : 4.38 GiB
Duration : 1h 33mn
Overall bit rate : 6 695 Kbps
Movie name : Приключения Десперо.2008
Encoded date : UTC 2012-03-25 17:12:25
Writing application : mkvmerge v5.4.0 ('Piper') built on Mar 18 2012 18:22:43
Writing library : libebml v1.2.3 + libmatroska v1.3.0

Video
ID : 1
Format : AVC
Format/Info : Advanced Video Codec
Format profile : High@L4.1
Format settings, CABAC : Yes
Format settings, ReFrames : 5 frames
Codec ID : V_MPEG4/ISO/AVC
Duration : 1h 33mn
Bit rate : 5 412 Kbps
Width : 1 920 pixels
Height : 816 pixels
Display aspect ratio : 2.35:1
Frame rate : 23.976 fps
Color space : YUV
Chroma subsampling : 4:2:0
Bit depth : 8 bits
Scan type : Progressive
Bits/(Pixel*Frame) : 0.144
Stream size : 3.45 GiB (79%)
Title : Rip by Boriy
Writing library : x264 core 122 r2184 5c85e0a
Encoding settings : cabac=1 / ref=5 / deblock=1:0:0 / analyse=0x3:0x113 / me=umh / subme=10 / psy=1 / psy_rd=1.00:0.10 / mixed_ref=1 / me_range=32 / chroma_me=1 / trellis=2 / 8x8dct=1 / cqm=0 / deadzone=21,11 / fast_pskip=0 / chroma_qp_offset=-3 / threads=12 / sliced_threads=0 / nr=0 / decimate=1 / interlaced=0 / bluray_compat=0 / constrained_intra=0 / bframes=5 / b_pyramid=2 / b_adapt=2 / b_bias=0 / direct=3 / weightb=1 / open_gop=0 / weightp=2 / keyint=240 / keyint_min=24 / scenecut=40 / intra_refresh=0 / rc_lookahead=60 / rc=2pass / mbtree=1 / bitrate=5412 / ratetol=1.0 / qcomp=0.60 / qpmin=0 / qpmax=69 / qpstep=4 / cplxblur=20.0 / qblur=0.5 / ip_ratio=1.40 / aq=1:1.00
Language : English
Default : Yes
Forced : No

Audio #1
ID : 2
Format : AC-3
Format/Info : Audio Coding 3
Mode extension : CM (complete main)
Codec ID : A_AC3
Duration : 1h 33mn
Bit rate mode : Constant
Bit rate : 640 Kbps
Channel(s) : 6 channels
Channel positions : Front: L C R, Side: L R, LFE
Sampling rate : 48.0 KHz
Bit depth : 16 bits
Compression mode : Lossy
Stream size : 428 MiB (10%)
Title : Дубляж
Language : Russian
Default : Yes
Forced : No

Audio #2
ID : 3
Format : AC-3
Format/Info : Audio Coding 3
Mode extension : CM (complete main)
Codec ID : A_AC3
Duration : 1h 33mn
Bit rate mode : Constant
Bit rate : 640 Kbps
Channel(s) : 6 channels
Channel positions : Front: L C R, Side: L R, LFE
Sampling rate : 48.0 KHz
Bit depth : 16 bits
Compression mode : Lossy
Stream size : 428 MiB (10%)
Title : Оригинал
Language : English
Default : No
Forced : No

Menu
00:00:00.000 : en:
00:05:00.000 : en:
00:10:00.000 : en:
00:15:00.000 : en:
00:20:00.000 : en:
00:25:00.000 : en:
00:30:00.000 : en:
00:35:00.000 : en:
00:40:00.000 : en:
00:45:00.000 : en:
00:50:00.000 : en:
00:55:00.000 : en:
01:00:00.000 : en:
01:05:00.000 : en:
01:10:00.000 : en:
01:15:00.000 : en:
01:20:00.000 : en:
01:25:00.000 : en:
01:30:00.000 : en:



   Похожие торренты   Торрент   Размер 
В этой теме нет новых непрочитанных сообщений. Приключения Десперо / The Tale of Despereaux (2008) BDRip от HELLYWOOD

6 | 2

1.45 ГБ

В этой теме нет новых непрочитанных сообщений. Приключения Десперо / The Tale of Despereaux (2008) BDRip 720 от SuperMin

179 | 22

1.85 ГБ

В этой теме нет новых непрочитанных сообщений. Приключения Десперо / The Tale of Despereaux (2008) BDRip от HQCLUB

126 | 12

1.45 ГБ

В этой теме нет новых непрочитанных сообщений. Приключения Десперо / The Tale of Despereaux (2008) BDRip-AVC | iPad

9 | 1

1.53 ГБ

В этой теме нет новых непрочитанных сообщений. Приключения Десперо / The Tale of Despereaux (2008) BDRip-AVC от ExKinoRay | Лицензия

45 | 17

1.66 ГБ

В этой теме нет новых непрочитанных сообщений. Приключения Десперо / The Tale of Despereaux (2008) HDRip

26 | 3

747.67 МБ

В этой теме нет новых непрочитанных сообщений. Приключение Десперо / The tales of Despereaux (2008) PC

9 | 11

3.28 ГБ




Вы не можете начинать темы
Вы не можете отвечать на сообщения
Вы не можете редактировать свои сообщения
Вы не можете удалять свои сообщения
Вы не можете добавлять вложения

Перейти:  
Для Мосгорсуда, Роскомнадзора и рекламодателей: mosgorsud-torrent[собачка]yandex.ru
 Вход
ppkBB3cker v.2 © 2008-2014 @ PPK
[ Time : 0.045s | 17 Queries | GZIP : Off ]

Торрент трекер RUTOR.IN, Не можете зайти на rutor.org? Какой новый адрес рутор? Какое зеркало рутор? Не работает rutor.org и зеркала? Тогда наш торрент специально для вас. Rutor.in неофициальное зеркало rutor. В случае если у Вас заблокирован rutor или вдруг Вы не можете на него зайти, то Вы без труда сможете скачать бесплатно и без рекламы последние новинки кино, игр, сериалов и прочего у нас, на Rutor.in. Не нужно использовать прокси, чтобы зайти на рутор, достаточно воспользоваться нашим ресурсом. Все новые фильмы, игры, сериалы, книги и музыка за 2013 и 2014 годы через торрент бесплатно. Скачивайте фильмы в хорошем качестве, игры для пк, xbox, playstation без регистрации. У нас вы найдете новые Зарубежные сериалы и Русские сериалы 2013, 2014, 2015 годов. Оставайтесь с нами, качайте любимые фильмы, игры, сериалы, книги и музыку.