img image001 image001 image001 image001 image001 image001 image001 image001 image001 image001 image001 image001 image001 image001 image001

Planets Sun Sun Sun
Статистика раздачи
Автор: Снежана | Размер: 4.38 ГБ | Добавлен: 27 июл 2013
Раздают: 548    Качают: 20
Скачать торрент
Скачать торрент
Описание торрента

СообщениеДобавлено: 27 июл 2013 

#77

Информация о фильме
Название: Красавица и чудовище
Оригинальное название: Beauty and the Beast
Год выхода: 1991
Жанр: мультфильм, мюзикл, фэнтези, мелодрама, семейный
Режиссер: Гари Труздейл, Кирк Уайз
В ролях: Пейдж О`Хара, Робби Бенсон, Ричард Уайт, Джерри Орбак, Дэвид Огден Стайерз, Анджела Лэнсбери, Брэдли Пирс, Рекс Эверхарт, Джесси Корти, Хэл Смит

О фильме:
Фильм приглашает в зачарованный замок, скрытый в чаще тёмного волшебного леса. Его хозяин - ужасное Чудовище, которого все боятся и ненавидят. Лишь самая прекрасная и смелая девушка в мире, по имени Белль, способна разгадать тайну страшного, а на самом деле, очень несчастного хозяина замка, и разрушить чары, обрекшие его на вечное пребывание в шкуре жуткого зверя.
Только тот, кто растопит лёд в сердце чудовища и сможет полюбить его таким, какой он есть, сможет вернуть ему человеческий облик, но, чтобы спасти хозяина зачарованного замка, Белль придётся выступить против всех: ведь жители её деревни, подстрекаемые злобным охотником Гастоном, хотят погубить гордое и доброе Чудовище...



Выпущено: США
Продолжительность: 01:31:45
Перевод: Дублированный + Оригинал

Файл
Кодек: x264
Качество: BDRip 1080p
Видео: 1920x1080, 5544 Kbps, 23.976 fps
Аудио #1: AC-3, 6 ch, 640 kbps (Rus)
Аудио #2: AC-3, 6 ch, 640 kbps (Eng)
Cубтитры: русские, английские

General
Unique ID : 183660092233277874749574199807624819658 (0x8A2BA5A9CB3C5A5CA01527CEF66733CA)
Complete name : Красавица и чудовище.1991.BDRip.1080p.Rus.Eng.mkv
Format : Matroska
Format version : Version 2
File size : 4.38 GiB
Duration : 1h 31mn
Overall bit rate : 6 827 Kbps
Movie name : Красавица и чудовище.1991
Encoded date : UTC 2012-05-16 10:01:08
Writing application : mkvmerge v5.5.0 ('Healer') built on Apr 24 2012 23:47:03
Writing library : libebml v1.2.3 + libmatroska v1.3.0

Video
ID : 1
Format : AVC
Format/Info : Advanced Video Codec
Format profile : High@L4.1
Format settings, CABAC : Yes
Format settings, ReFrames : 4 frames
Codec ID : V_MPEG4/ISO/AVC
Duration : 1h 31mn
Bit rate : 5 544 Kbps
Width : 1 920 pixels
Height : 1 080 pixels
Display aspect ratio : 16:9
Frame rate : 23.976 fps
Color space : YUV
Chroma subsampling : 4:2:0
Bit depth : 8 bits
Scan type : Progressive
Bits/(Pixel*Frame) : 0.112
Stream size : 3.47 GiB (79%)
Title : Rip by Boriy
Writing library : x264 core 124 r2197 69a0443
Encoding settings : cabac=1 / ref=4 / deblock=1:0:0 / analyse=0x3:0x113 / me=umh / subme=10 / psy=1 / psy_rd=1.00:0.10 / mixed_ref=1 / me_range=32 / chroma_me=1 / trellis=2 / 8x8dct=1 / cqm=0 / deadzone=21,11 / fast_pskip=0 / chroma_qp_offset=-3 / threads=12 / sliced_threads=0 / nr=0 / decimate=0 / interlaced=0 / bluray_compat=0 / constrained_intra=0 / bframes=5 / b_pyramid=2 / b_adapt=2 / b_bias=0 / direct=3 / weightb=1 / open_gop=0 / weightp=2 / keyint=240 / keyint_min=23 / scenecut=40 / intra_refresh=0 / rc_lookahead=60 / rc=2pass / mbtree=1 / bitrate=5544 / ratetol=1.0 / qcomp=0.60 / qpmin=0 / qpmax=69 / qpstep=4 / cplxblur=20.0 / qblur=0.5 / ip_ratio=1.40 / aq=1:1.00
Language : English
Default : Yes
Forced : No

Audio #1
ID : 2
Format : AC-3
Format/Info : Audio Coding 3
Mode extension : CM (complete main)
Format settings, Endianness : Big
Codec ID : A_AC3
Duration : 1h 31mn
Bit rate mode : Constant
Bit rate : 640 Kbps
Channel(s) : 6 channels
Channel positions : Front: L C R, Side: L R, LFE
Sampling rate : 48.0 KHz
Bit depth : 16 bits
Compression mode : Lossy
Stream size : 420 MiB (9%)
Title : Дубляж
Language : Russian
Default : Yes
Forced : No

Audio #2
ID : 3
Format : AC-3
Format/Info : Audio Coding 3
Mode extension : CM (complete main)
Format settings, Endianness : Big
Codec ID : A_AC3
Duration : 1h 31mn
Bit rate mode : Constant
Bit rate : 640 Kbps
Channel(s) : 6 channels
Channel positions : Front: L C R, Side: L R, LFE
Sampling rate : 48.0 KHz
Bit depth : 16 bits
Compression mode : Lossy
Stream size : 420 MiB (9%)
Title : Оригинал
Language : English
Default : No
Forced : No

Text #1
ID : 4
Format : UTF-8
Codec ID : S_TEXT/UTF8
Codec ID/Info : UTF-8 Plain Text
Language : Russian
Default : No
Forced : No

Text #2
ID : 5
Format : UTF-8
Codec ID : S_TEXT/UTF8
Codec ID/Info : UTF-8 Plain Text
Language : English
Default : No
Forced : No

Menu
00:00:00.000 : en:00:00:00.000
00:03:19.616 : en:00:03:19.616
00:08:24.837 : en:00:08:24.837
00:13:50.955 : en:00:13:50.955
00:17:34.887 : en:00:17:34.887
00:20:53.835 : en:00:20:53.835
00:25:34.241 : en:00:25:34.241
00:27:04.748 : en:00:27:04.748
00:34:58.846 : en:00:34:58.846
00:38:28.848 : en:00:38:28.848
00:43:50.794 : en:00:43:50.794
00:49:25.629 : en:00:49:25.629
00:51:59.074 : en:00:51:59.074
00:53:59.736 : en:00:53:59.736
00:57:26.651 : en:00:57:26.651
01:03:07.241 : en:01:03:07.241
01:09:42.553 : en:01:09:42.553
01:11:28.450 : en:01:11:28.450
01:14:22.457 : en:01:14:22.457
01:17:15.380 : en:01:17:15.380
01:21:48.903 : en:01:21:48.903
01:26:00.321 : en:01:26:00.321
01:31:44.624 : en:01:31:44.624



   Похожие торренты   Торрент   Размер 
В этой теме нет новых непрочитанных сообщений. Красавица и чудовище / Beauty and the Beast (1991) BDRip от HELLYWOOD | Режиссерская версия / Directors cut

1667 | 70

1.45 ГБ

В этой теме нет новых непрочитанных сообщений. Красавица и чудовище / Beauty and the Beast (1991) BDRip от HQCLUB | Режиссерская версия / Directors cut

386 | 15

1.45 ГБ

В этой теме нет новых непрочитанных сообщений. Красавица и чудовище / Beauty and the Beast (1991) BDRip-AVC | D | Режиссерская версия

0 | 127

2.16 ГБ

В этой теме нет новых непрочитанных сообщений. Красавица и Чудовище / Beauty and the Beast (1991) BDRip-AVC | D | Расширенная версия

38 | 13

2 ГБ

В этой теме нет новых непрочитанных сообщений. Красавица и чудовище / Beauty and the Beast (1991) BDRip от HELLYWOOD | Театральная версия / Theatrical cut

142 | 11

1.45 ГБ

В этой теме нет новых непрочитанных сообщений. Красавица и чудовище / Beauty and the Beast (1991) BDRip от HQCLUB | Театральная версия / Theatrical cut

21 | 3

1.45 ГБ

В этой теме нет новых непрочитанных сообщений. Красавица и чудовище 3D / Beauty and the Beast 3D (1991) BDRip 1080p | 3D-Video

32 | 13

7.05 ГБ




Вы не можете начинать темы
Вы не можете отвечать на сообщения
Вы не можете редактировать свои сообщения
Вы не можете удалять свои сообщения
Вы не можете добавлять вложения

Перейти:  
Для Мосгорсуда, Роскомнадзора и рекламодателей: mosgorsud-torrent[собачка]yandex.ru
 Вход
ppkBB3cker v.2 © 2008-2014 @ PPK
[ Time : 0.088s | 14 Queries | GZIP : Off ]

Торрент трекер RUTOR.IN, Не можете зайти на rutor.org? Какой новый адрес рутор? Какое зеркало рутор? Не работает rutor.org и зеркала? Тогда наш торрент специально для вас. Rutor.in неофициальное зеркало rutor. В случае если у Вас заблокирован rutor или вдруг Вы не можете на него зайти, то Вы без труда сможете скачать бесплатно и без рекламы последние новинки кино, игр, сериалов и прочего у нас, на Rutor.in. Не нужно использовать прокси, чтобы зайти на рутор, достаточно воспользоваться нашим ресурсом. Все новые фильмы, игры, сериалы, книги и музыка за 2013 и 2014 годы через торрент бесплатно. Скачивайте фильмы в хорошем качестве, игры для пк, xbox, playstation без регистрации. У нас вы найдете новые Зарубежные сериалы и Русские сериалы 2013, 2014, 2015 годов. Оставайтесь с нами, качайте любимые фильмы, игры, сериалы, книги и музыку.