img image001 image001 image001 image001 image001 image001 image001 image001 image001 image001 image001 image001 image001 image001 image001

Planets Sun Sun Sun
Статистика раздачи
Автор: Снежана | Размер: 2.51 ГБ | Добавлен: 27 июл 2013
Раздают: 65    Качают: 5
Скачать торрент
Скачать торрент
Описание торрента

СообщениеДобавлено: 27 июл 2013 

Мэри и Макс / Mary and Max (2009) BDRip 720p
от DHT-Movies
«Two unlikely people. Two different worlds come together in a story about a most unusual friendship.»



Обладатель Хрустального медведя на Берлинском кинофестивале - особое упоминание - лучший художественный фильм конкурса для юношества Поколение 14+


#77

Название: Мэри и Макс
Оригинальное название: Mary and Max
Год выхода: 2009
Жанр: мультфильм, драма, комедия
Режиссер: Адам Бенжамин Эллиот



В ролях:

Тони Коллетт, Филип Сеймур Хоффман, Эрик Бана, Бэрри Хамфриз, Бетани Витмор, Рени Гейер, Ian 'Molly' Meldrum, John Flaus, Джули Форсайт, Michael Ienna

Описание:

История отношений 8-летней девочки Мэри Динкль, которая скучает в пригороде далекого австралийского Мельбурна, и Макса Хоровица, 44-летнего одинокого еврея, жителя шумного нью-йоркского хаоса. Разделенные разницей в возрасте и двумя континентами, Мэри и Макс проносят свою необычную дружбу через годы.


Страна: Австралия
Продолжительность: 01:32:16
Перевод: Многоголосый (Профессиональный[Лицензия])+ Оригинал (Английский)
Субтитры: Русские/Английские UTF-8 (full)

Релиз группа: | by AVT83


Качество: BDRip 720p (Исходник: Mary and Max (2009) 1080р BD-Remux от
Формат: MKV
Видео кодек: H.264
Видео: 1280x696 23.976 fps 2 996 Kbps 0.140 Bits/(Pixel*Frame)
Аудио (Русский): 48 kHz, AC3 Dolby Digital, 3/2 (L,C,R,l,r) + LFE ch, ~ 448 kbps avg | (Многоголосый)
Аудио (Английский): 48 kHz, AC3 Dolby Digital, 3/2 (L,C,R,l,r) + LFE ch, ~ 448 kbps avg | (Оригинал)


Format : Matroska
Format version : Version 2
File size : 2.51 GiB
Duration : 1h 32mn
Overall bit rate : 3 895 Kbps
Encoded date : UTC 2012-05-17 12:51:59
Writing application : mkvmerge v4.0.0 ('The Stars were mine') built on Jun 6 2010 16:18:42
Writing library : libebml v1.0.0 + libmatroska v1.0.0
Video #1
ID : 1
Format : AVC
Format/Info : Advanced Video Codec
Format profile : High@L4.1
Format settings, CABAC : Yes
Format settings, ReFrames : 9 frames
Codec ID : V_MPEG4/ISO/AVC
Duration : 1h 32mn
Bit rate : 2 996 Kbps
Width : 1 280 pixels
Height : 696 pixels
Display aspect ratio : 16:9
Frame rate : 23.976 fps
Color space : YUV
Chroma subsampling : 4:2:0
Bit depth : 8 bits
Scan type : Progressive
Bits/(Pixel*Frame) : 0.140
Stream size : 1.88 GiB (75%)
Writing library : x264 core 119 r2106 07efeb4
Encoding settings : cabac=1 / ref=9 / deblock=1:-1:-1 / analyse=0x3:0x113 / me=esa / subme=11 / psy=1 / psy_rd=0.75:0.00 / mixed_ref=1 / me_range=32 / chroma_me=1 / trellis=2 / 8x8dct=1 / cqm=0 / deadzone=21,11 / fast_pskip=0 / chroma_qp_offset=-2 / threads=6 / sliced_threads=0 / nr=0 / decimate=0 / interlaced=0 / bluray_compat=0 / constrained_intra=0 / bframes=9 / b_pyramid=2 / b_adapt=2 / b_bias=0 / direct=3 / weightb=1 / open_gop=0 / weightp=2 / keyint=240 / keyint_min=22 / scenecut=40 / intra_refresh=0 / rc_lookahead=45 / rc=2pass / mbtree=1 / bitrate=2996 / ratetol=1.0 / qcomp=0.65 / qpmin=0 / qpmax=69 / qpstep=4 / cplxblur=20.0 / qblur=0.5 / ip_ratio=1.40 / aq=1:1.00
Language : English
Default : No
Forced : No
Audio #2
ID : 2
Format : AC-3
Format/Info : Audio Coding 3
Mode extension : CM (complete main)
Codec ID : A_AC3
Duration : 1h 32mn
Bit rate mode : Constant
Bit rate : 448 Kbps
Channel(s) : 6 channels
Channel positions : Front: L C R, Side: L R, LFE
Sampling rate : 48.0 KHz
Bit depth : 16 bits
Compression mode : Lossy
Stream size : 296 MiB (12%)
Title : Дубляж
Language : Russian
Default : Yes
Forced : No
Audio #3
ID : 3
Format : AC-3
Format/Info : Audio Coding 3
Mode extension : CM (complete main)
Codec ID : A_AC3
Duration : 1h 32mn
Bit rate mode : Constant
Bit rate : 448 Kbps
Channel(s) : 6 channels
Channel positions : Front: L C R, Side: L R, LFE
Sampling rate : 48.0 KHz
Bit depth : 16 bits
Compression mode : Lossy
Stream size : 296 MiB (12%)
Title : Оригинал
Language : English
Default : No
Forced : No
Text #4
ID : 4
Format : UTF-8
Codec ID : S_TEXT/UTF8
Codec ID/Info : UTF-8 Plain Text
Title : full
Language : Russian
Default : Yes
Forced : No
Text #5
ID : 5
Format : UTF-8
Codec ID : S_TEXT/UTF8
Codec ID/Info : UTF-8 Plain Text
Title : full
Language : English
Default : No
Forced : No
Фильм основан на реальных событиях.






   Похожие торренты   Торрент   Размер 
В этой теме нет новых непрочитанных сообщений. Мэри и Макс / Mary and Max (2009) BDRip от HQCLUB

6 | 3

1.45 ГБ

В этой теме нет новых непрочитанных сообщений. Мэри и Макс / Mary and Max (2009) BDRip-AVC | iPad

12 | 1

987.19 МБ

В этой теме нет новых непрочитанных сообщений. Мэри и Макс / Mary and Max (2009) BDRip от HELLYWOOD

6 | 6

1.75 ГБ

В этой теме нет новых непрочитанных сообщений. Мэри и Макс / Mary and Max (2009) BDRip-AVC от FireBit

7 | 1

1.56 ГБ

В этой теме нет новых непрочитанных сообщений. Мэри и Макс / Mary and Max (2009) BDRip 1080 от HDReactor

9 | 3

7.95 ГБ

В этой теме нет новых непрочитанных сообщений. Мэри и Макс / Mary and Max (2009) DVDRip

2 | 2

700.1 МБ

В этой теме нет новых непрочитанных сообщений. Мэри и Макс / Mary and Max (2009) HDRip | Лицензия

13 | 3

1.37 ГБ




Вы не можете начинать темы
Вы не можете отвечать на сообщения
Вы не можете редактировать свои сообщения
Вы не можете удалять свои сообщения
Вы не можете добавлять вложения

Перейти:  
Для Мосгорсуда, Роскомнадзора и рекламодателей: mosgorsud-torrent[собачка]yandex.ru
 Вход
ppkBB3cker v.2 © 2008-2014 @ PPK
[ Time : 0.051s | 17 Queries | GZIP : Off ]

Торрент трекер RUTOR.IN, Не можете зайти на rutor.org? Какой новый адрес рутор? Какое зеркало рутор? Не работает rutor.org и зеркала? Тогда наш торрент специально для вас. Rutor.in неофициальное зеркало rutor. В случае если у Вас заблокирован rutor или вдруг Вы не можете на него зайти, то Вы без труда сможете скачать бесплатно и без рекламы последние новинки кино, игр, сериалов и прочего у нас, на Rutor.in. Не нужно использовать прокси, чтобы зайти на рутор, достаточно воспользоваться нашим ресурсом. Все новые фильмы, игры, сериалы, книги и музыка за 2013 и 2014 годы через торрент бесплатно. Скачивайте фильмы в хорошем качестве, игры для пк, xbox, playstation без регистрации. У нас вы найдете новые Зарубежные сериалы и Русские сериалы 2013, 2014, 2015 годов. Оставайтесь с нами, качайте любимые фильмы, игры, сериалы, книги и музыку.
cron