img image001 image001 image001 image001 image001 image001 image001 image001 image001 image001 image001 image001 image001 image001 image001

Planets Sun Sun Sun
Статистика раздачи
Автор: Снежана | Размер: 8.52 ГБ | Добавлен: 27 июл 2013
Раздают: 6    Качают: 2
Скачать торрент
Скачать торрент
Описание торрента

СообщениеДобавлено: 27 июл 2013 



Описание

Название: Спецагент Арчер
Оригинальное название: Archer
Год выхода: 2009
Жанр: мультфильм, боевик, комедия
Режиссер: Адам Рид, Мэтт Томпсон
В ролях: Х. Джон Бенжамин, Джуди Грир, Эмбер Нэш, Крис Парнелл, Аиша Тайлер, Джессика Уолтер, Адам Рид, Лаки Йэтс, Джордж Коу, Питер Ньюман

Сюжет фильма

В международном шпионском агенстве ISIS любой мировой кризис - лишь предлог для высококлассных секретных агентов посоревноваться между собой в обмане и предательстве. Главным героем мультсериала является спецагент Стерлинг Арчер, известный также под кодовым именем «Герцогиня». На службе Арчеру приходится мириться со своей эксцентричной мамашей/начальницей - Мэлори, бывшей подружкой Ланой, озабоченной секретаршей Шерил и другими «интересными личностями».

Внимание! В сериале присутствует ненормативная лексика!

Episode 1: Mole Hunt / Охота на крота
Episode 2: Training Day / Тренировка
Episode 3: Killing Utne / Убить Атнэ
Episode 4: Diversity Hire / Разнообразие по найму
Episode 5: Honeypot / Бочка мёда
Episode 6: Skorpio / Скорпио
Episode 7: Skytanic / Небесный Титаник
Episode 8: The Rock / Камень
Episode 9: Job Offer / Предложение работы
Episode 10: Dial M for Mother / М значит Мама




Сэмпл

Автор рипа mitrian

Дополнительно

Выпущено: США
Продолжительность: ~21мин.
Перевод: Профессиональный Многоголосый закадровый Кубик в Кубе и Бяко Рекордс по заказу NovaFiLM.TV

Файл

Качество: BDRip 1080p (исходник Blu-ray)
Видео: 1920x1080, 5270 Кбит/сек, 23.976 кадр/сек, AVC, x264, 16:9, 0.106 Бит/(Пиксели*Кадры)
Аудио: AC-3, 384 Кбит/сек, 6 канала(ов), 48,0 КГц
Контейнер: MKV
Размер серий: 872 мб.



Format : Matroska
Format version : Version 2
File size : 872 MiB
Duration : 21mn 32s
Overall bit rate : 5 656 Kbps
Movie name : Rip by mitrian (NOLIMITS-TEAM.RU)
Encoded date : UTC 2012-05-18 16:41:00
Writing application : mkvmerge v5.5.0 ('Healer') built on Apr 6 2012 21:43:24
Writing library : libebml v1.2.3 + libmatroska v1.3.0

Video
ID : 1
Format : AVC
Format/Info : Advanced Video Codec
Format profile : High@L4.1
Format settings, CABAC : Yes
Format settings, ReFrames : 4 frames
Codec ID : V_MPEG4/ISO/AVC
Duration : 21mn 32s
Bit rate : 5 270 Kbps
Width : 1 920 pixels
Height : 1 080 pixels
Display aspect ratio : 16:9
Frame rate : 23.976 fps
Color space : YUV
Chroma subsampling : 4:2:0
Bit depth : 8 bits
Scan type : Progressive
Bits/(Pixel*Frame) : 0.106
Stream size : 795 MiB (91%)
Title : 01 серия
Writing library : x264 core 124 r2197 69a0443
Encoding settings : cabac=1 / ref=4 / deblock=1:-3:-2 / analyse=0x3:0x133 / me=umh / subme=10 / psy=1 / psy_rd=1.00:0.10 / mixed_ref=1 / me_range=32 / chroma_me=1 / trellis=2 / 8x8dct=1 / cqm=0 / deadzone=21,11 / fast_pskip=0 / chroma_qp_offset=-3 / threads=6 / sliced_threads=0 / slices=4 / nr=0 / decimate=0 / interlaced=0 / bluray_compat=0 / constrained_intra=0 / bframes=5 / b_pyramid=2 / b_adapt=2 / b_bias=0 / direct=3 / weightb=1 / open_gop=0 / weightp=2 / keyint=240 / keyint_min=24 / scenecut=40 / intra_refresh=0 / rc_lookahead=60 / rc=2pass / mbtree=1 / bitrate=5270 / ratetol=2.0 / qcomp=0.60 / qpmin=0 / qpmax=51 / qpstep=4 / cplxblur=20.0 / qblur=0.5 / ip_ratio=1.40 / aq=1:1.00
Language : English
Default : Yes
Forced : No

Audio
ID : 2
Format : AC-3
Format/Info : Audio Coding 3
Mode extension : CM (complete main)
Format settings, Endianness : Big
Codec ID : A_AC3
Duration : 21mn 32s
Bit rate mode : Constant
Bit rate : 384 Kbps
Channel(s) : 6 channels
Channel positions : Front: L C R, Side: L R, LFE
Sampling rate : 48.0 KHz
Bit depth : 16 bits
Compression mode : Lossy
Stream size : 59.2 MiB (7%)
Title : Русский
Default : Yes
Forced : No

Menu
00:00:00.000 : en:00:00:00.000
00:02:29.355 : en:00:02:29.355
00:06:50.576 : en:00:06:50.576
00:12:19.028 : en:00:12:19.028
00:20:21.259 : en:00:20:21.259



   Похожие торренты   Торрент   Размер 
В этой теме нет новых непрочитанных сообщений. Спецагент Арчер / Арчер / Archer [S01-S02-01,03,05,07 из 13] (2009-2011) WEB-DLRip | 2x2

3 | 7

2.77 ГБ

В этой теме нет новых непрочитанных сообщений. Спецагент Арчер / Archer [S01] (2009) BDRip от HQRips

21 | 11

3.7 ГБ

В этой теме нет новых непрочитанных сообщений. Спецагент Арчер / Archer [01x01-10] (2009-2010) WEB-DL

37 | 9

1.96 ГБ

В этой теме нет новых непрочитанных сообщений. Спецагент Арчер / Archer [01x01-10] (2009-2010) WEB-DL 720p

15 | 4

5.18 ГБ

В этой теме нет новых непрочитанных сообщений. Спецагент Арчер / Archer [08x01 из 08] (2017) WEB-DLRip 1080p | IdeaFilm

27 | 9

979.34 МБ

В этой теме нет новых непрочитанных сообщений. Спецагент Арчер / Archer [08x01 из 08] (2017) WEB-DLRip 1080p | IdeaFilm

0 | 0

2.71 ГБ

В этой теме нет новых непрочитанных сообщений. Спецагент Арчер / Archer [08x01 из 08] (2017) WEB-DLRip 1080p | IdeaFilm

36 | 35

1.86 ГБ




Вы не можете начинать темы
Вы не можете отвечать на сообщения
Вы не можете редактировать свои сообщения
Вы не можете удалять свои сообщения
Вы не можете добавлять вложения

Перейти:  
Для Мосгорсуда, Роскомнадзора и рекламодателей: mosgorsud-torrent[собачка]yandex.ru
 Вход
ppkBB3cker v.2 © 2008-2014 @ PPK
[ Time : 0.086s | 14 Queries | GZIP : Off ]

Торрент трекер RUTOR.IN, Не можете зайти на rutor.org? Какой новый адрес рутор? Какое зеркало рутор? Не работает rutor.org и зеркала? Тогда наш торрент специально для вас. Rutor.in неофициальное зеркало rutor. В случае если у Вас заблокирован rutor или вдруг Вы не можете на него зайти, то Вы без труда сможете скачать бесплатно и без рекламы последние новинки кино, игр, сериалов и прочего у нас, на Rutor.in. Не нужно использовать прокси, чтобы зайти на рутор, достаточно воспользоваться нашим ресурсом. Все новые фильмы, игры, сериалы, книги и музыка за 2013 и 2014 годы через торрент бесплатно. Скачивайте фильмы в хорошем качестве, игры для пк, xbox, playstation без регистрации. У нас вы найдете новые Зарубежные сериалы и Русские сериалы 2013, 2014, 2015 годов. Оставайтесь с нами, качайте любимые фильмы, игры, сериалы, книги и музыку.