img image001 image001 image001 image001 image001 image001 image001 image001 image001 image001 image001 image001 image001 image001 image001

Planets Sun Sun Sun
Статистика раздачи
Автор: Снежана | Размер: 3.42 ГБ | Добавлен: 27 июл 2013
Раздают: 7    Качают: 3
Скачать торрент
Скачать торрент
Описание торрента

СообщениеДобавлено: 27 июл 2013 

#77

Название: Тор: Легенда викингов
Оригинальное название: Legends of Valhalla: Thor
Страна: Германия, Исландия, Ирландия
Жанр: Мультфильм, комедия, приключения, семейный
Год выпуска: 2011
Продолжительность: 01:23:00
Перевод: Профессиональный (дублированный)

Режиссер: Оускар Йоунассон

В ролях: Джастин Грегг, Пол Тайлак, Николя Кохлан, Лиз Ллойд, Алан Стэнфорд, Эммет Скэнлэн, Дж. Дрю Лукас, Мэри Мюррэй, Леса Турман, Гари Хецлер

Описание: Самоуверенный подросток, в арсенале которого находятся магическое оружие, присоединяется к борьбе против злой королевы и ее армии великанов.


Тип релиза:BDRip 720p
Формат: MKV
Видео кодек: AVC
Аудио кодек: AC-3
Видео: AVC, 1280x528 (2.424), 23.976 fps, 5 261 Kbps
Аудио: AC-3, 48.0 KHz, 6 ch, 640 Kbps, CBR
Cубтитры: нет

Семпл

Unique ID : 170498951951777699859122510232678534773 (0x8044E75936F0B612BB58B14920938E75)
Complete name : D:Мои програмыFormatFactoryНовая папкаTor.Legenda.vikingov.2011.x264.BDRip.720p.mkv
Format : Matroska
File size : 3.42 GiB
Duration : 1h 23mn
Overall bit rate : 5 902 Kbps
Movie name : Tor.Legenda.vikingov.2011.D.BDRip.720p.Uniongang.tv by Prov1zoR
Encoded date : UTC 2012-05-21 09:09:15
Writing application : mkvmerge v5.3.0 ('I could have danced') built on Feb 9 2012 10:38:07
Writing library : libebml v1.2.3 + libmatroska v1.3.0

Video
ID : 1
Format : AVC
Format/Info : Advanced Video Codec
Format profile : High@L4.1
Format settings, CABAC : Yes
Format settings, ReFrames : 10 frames
Format settings, GOP : N=1
Codec ID : V_MPEG4/ISO/AVC
Duration : 1h 23mn
Bit rate : 5 261 Kbps
Width : 1 280 pixels
Height : 528 pixels
Display aspect ratio : 2.40:1
Frame rate : 23.976 fps
Color space : YUV
Chroma subsampling : 4:2:0
Bit depth : 8 bits
Scan type : Progressive
Bits/(Pixel*Frame) : 0.325
Stream size : 2.98 GiB (87%)
Title : Tor.Legenda.vikingov.2011.D.BDRip.720p.Uniongang.tv by Prov1zoR
Writing library : x264 core 119 r2106 07efeb4
Encoding settings : cabac=1 / ref=10 / deblock=1:-3:-3 / analyse=0x3:0x113 / me=umh / subme=9 / psy=1 / psy_rd=1.10:1.00 / mixed_ref=1 / me_range=32 / chroma_me=1 / trellis=2 / 8x8dct=1 / cqm=0 / deadzone=21,11 / fast_pskip=0 / chroma_qp_offset=-4 / threads=6 / sliced_threads=0 / nr=0 / decimate=1 / interlaced=0 / bluray_compat=0 / constrained_intra=0 / bframes=8 / b_pyramid=2 / b_adapt=2 / b_bias=0 / direct=3 / weightb=1 / open_gop=0 / weightp=2 / keyint=250 / keyint_min=23 / scenecut=40 / intra_refresh=0 / rc=2pass / mbtree=0 / bitrate=5261 / ratetol=1.0 / qcomp=0.60 / qpmin=0 / qpmax=69 / qpstep=4 / cplxblur=20.0 / qblur=0.5 / ip_ratio=1.40 / pb_ratio=1.30 / aq=1:1.00
Language : Russian

Audio
ID : 2
Format : AC-3
Format/Info : Audio Coding 3
Mode extension : CM (complete main)
Codec ID : A_AC3
Duration : 1h 23mn
Bit rate mode : Constant
Bit rate : 640 Kbps
Channel(s) : 6 channels
Channel positions : Front: L C R, Side: L R, LFE
Sampling rate : 48.0 KHz
Bit depth : 16 bits
Compression mode : Lossy
Stream size : 380 MiB (11%)
Title : AC3
Language : Russian

Menu
00:00:00.000 : ru:00:00:00.000
00:08:11.700 : ru:00:08:11.700
00:15:34.642 : ru:00:15:34.642
00:23:53.140 : ru:00:23:53.140
00:31:51.368 : ru:00:31:51.368
00:39:02.340 : ru:00:39:02.340
00:46:40.297 : ru:00:46:40.297
00:54:32.936 : ru:00:54:32.936
01:02:40.173 : ru:01:02:40.173
01:12:02.276 : ru:01:12:02.276
01:18:45.095 : ru:01:18:45.095






   Похожие торренты   Торрент   Размер 
В этой теме нет новых непрочитанных сообщений. Тор: Легенда викингов / Legends of Valhalla: Thor (2011) BDRip 720p от HELLYWOOD | Лицензия

32 | 16

2.5 ГБ

В этой теме нет новых непрочитанных сообщений. Тор: Легенда викингов / Legends of Valhalla: Thor (2011) HDRip | Лицензия

15 | 6

698.21 МБ

В этой теме нет новых непрочитанных сообщений. Тор: Легенда викингов / Legends of Valhalla: Thor (2011) HDRip | Лицензия

226 | 15

1.37 ГБ

В этой теме нет новых непрочитанных сообщений. Тор: Легенда викингов / Legends of Valhalla: Thor (2011) BDRip 1080p

26 | 6

4.37 ГБ

В этой теме нет новых непрочитанных сообщений. Тор / Thor (2011) BDRip 720p от Leonardo and Scarabey | Лицензия

475 | 37

4.57 ГБ

В этой теме нет новых непрочитанных сообщений. Тор / Thor (2011) BDRip 1080p | Лицензия

16 | 7

11.35 ГБ

В этой теме нет новых непрочитанных сообщений. Тор / Thor (2011) BDRip-AVC от Leonardo and Scarabey | Лицензия

246 | 24

2 ГБ




Вы не можете начинать темы
Вы не можете отвечать на сообщения
Вы не можете редактировать свои сообщения
Вы не можете удалять свои сообщения
Вы не можете добавлять вложения

Перейти:  
Для Мосгорсуда, Роскомнадзора и рекламодателей: mosgorsud-torrent[собачка]yandex.ru
 Вход
ppkBB3cker v.2 © 2008-2014 @ PPK
[ Time : 0.031s | 14 Queries | GZIP : Off ]

Торрент трекер RUTOR.IN, Не можете зайти на rutor.org? Какой новый адрес рутор? Какое зеркало рутор? Не работает rutor.org и зеркала? Тогда наш торрент специально для вас. Rutor.in неофициальное зеркало rutor. В случае если у Вас заблокирован rutor или вдруг Вы не можете на него зайти, то Вы без труда сможете скачать бесплатно и без рекламы последние новинки кино, игр, сериалов и прочего у нас, на Rutor.in. Не нужно использовать прокси, чтобы зайти на рутор, достаточно воспользоваться нашим ресурсом. Все новые фильмы, игры, сериалы, книги и музыка за 2013 и 2014 годы через торрент бесплатно. Скачивайте фильмы в хорошем качестве, игры для пк, xbox, playstation без регистрации. У нас вы найдете новые Зарубежные сериалы и Русские сериалы 2013, 2014, 2015 годов. Оставайтесь с нами, качайте любимые фильмы, игры, сериалы, книги и музыку.