img image001 image001 image001 image001 image001 image001 image001 image001 image001 image001 image001 image001 image001 image001 image001

Planets Sun Sun Sun
Статистика раздачи
Автор: Снежана | Размер: 4.37 ГБ | Добавлен: 27 июл 2013
Раздают: 26    Качают: 6
Скачать торрент
Скачать торрент
Описание торрента

СообщениеДобавлено: 27 июл 2013 

#77

Информация о фильме
Название: Тор: Легенда викингов
Оригинальное название: Legends of Valhalla: Thor
Год выхода: 2011
Жанр: мультфильм, комедия, приключения, семейный
Режиссер: Оускар Йоунассон, Тоби Генкель, Гуннар Карлссон
В ролях: Джастин Грегг, Пол Тайлак, Николя Кохлан, Лиз Ллойд, Алан Стэнфорд, Эммет Скэнлэн, Дж. Дрю Лукас, Мэри Мюррэй, Леса Турман, Гари Хецлер

О фильме: Самоуверенный подросток, в арсенале которого находятся магическое оружие, присоединяется к борьбе против злой королевы и ее армии великанов.



Выпущено: CAOZ hf.
Продолжительность: 01:23:01
Перевод: Дублированный

Файл
Кодек: x264
Качество: BDRip (источник: Blu-ray Disc)
Видео: 1920x800 (2,40:1), 23.976 fps, 6898 kbps
Звук: AC-3, 6 ch, 640 kbps
Скачать: сэмпл

Скриншоты

Общее
Уникальный идентификатор : 233779477316247019503251962700977389386 (0xAFE04A21908BD9108BF726573AC3BF4A)
Полное имя : Legends.of.Valhalla.Thor.2011.BDRip.1080p.Rus.mkv
Формат : Matroska
Версия формата : Version 2
Размер файла : 4,37 Гбайт
Продолжительность : 1 ч. 23 м.
Общий поток : 7541 Кбит/сек
Название фильма : Тор: Легенда викингов / Hetjur Valhallar - Þór (2011)
Дата кодирования : UTC 2012-05-21 14:15:38
Программа кодирования : mkvmerge v5.5.0 ('Healer') built on Apr 6 2012 21:43:24
Библиотека кодирования : libebml v1.2.3 + libmatroska v1.3.0

Видео
Идентификатор : 1
Формат : AVC
Формат/Информация : Advanced Video Codec
Профиль формата : High@L4.1
Параметр CABAC формата : Да
Параметр ReFrames формата : 5 кадров
Идентификатор кодека : V_MPEG4/ISO/AVC
Продолжительность : 1 ч. 23 м.
Битрейт : 6898 Кбит/сек
Ширина : 1920 пикселей
Высота : 800 пикселей
Соотношение сторон : 2,40:1
Частота кадров : 23,976 кадра/сек
Цветовое пространство : YUV
Субдискретизация насыщенности : 4:2:0
Битовая глубина : 8 бит
Тип развёртки : Прогрессивная
Бит/(Пиксели*Кадры) : 0.187
Размер потока : 3,91 Гбайт (90%)
Библиотека кодирования : x264 core 124 r2197 69a0443
Настройки программы : cabac=1 / ref=5 / deblock=1:0:0 / analyse=0x3:0x133 / me=umh / subme=10 / psy=1 / psy_rd=1.00:0.00 / mixed_ref=1 / me_range=32 / chroma_me=1 / trellis=2 / 8x8dct=1 / cqm=0 / deadzone=21,11 / fast_pskip=0 / chroma_qp_offset=-2 / threads=12 / sliced_threads=0 / nr=0 / decimate=0 / interlaced=0 / bluray_compat=0 / constrained_intra=0 / bframes=3 / b_pyramid=2 / b_adapt=2 / b_bias=0 / direct=3 / weightb=1 / open_gop=0 / weightp=2 / keyint=240 / keyint_min=23 / scenecut=40 / intra_refresh=0 / rc_lookahead=60 / rc=2pass / mbtree=1 / bitrate=6898 / ratetol=1.0 / qcomp=0.60 / qpmin=0 / qpmax=69 / qpstep=4 / cplxblur=20.0 / qblur=0.5 / ip_ratio=1.40 / aq=1:1.00
Язык : Icelandic

Аудио
Идентификатор : 2
Формат : AC-3
Формат/Информация : Audio Coding 3
Расширение режима : CM (complete main)
Идентификатор кодека : A_AC3
Продолжительность : 1 ч. 23 м.
Вид битрейта : Постоянный
Битрейт : 640 Кбит/сек
Каналы : 6 каналов
Расположение каналов : Front: L C R, Side: L R, LFE
Частота : 48,0 КГц
Битовая глубина : 16 бит
Метод сжатия : С потерями
Размер потока : 380 Мбайт (8%)
Язык : Russian

Меню
00:00:00.000 : :Chapter 01
00:08:11.699 : :Chapter 02
00:15:34.642 : :Chapter 03
00:23:53.140 : :Chapter 04
00:31:51.367 : :Chapter 05
00:39:02.340 : :Chapter 06
00:46:40.297 : :Chapter 07
00:54:32.936 : :Chapter 08
01:02:40.173 : :Chapter 09
01:12:02.276 : :Chapter 10
01:18:45.095 : :Chapter 11
01:23:00.350 : :Chapter 12



   Похожие торренты   Торрент   Размер 
В этой теме нет новых непрочитанных сообщений. Тор: Легенда викингов / Legends of Valhalla: Thor (2011) BDRip 720p | Лицензия

7 | 3

3.42 ГБ

В этой теме нет новых непрочитанных сообщений. Тор: Легенда викингов / Legends of Valhalla: Thor (2011) BDRip 720p от HELLYWOOD | Лицензия

32 | 16

2.5 ГБ

В этой теме нет новых непрочитанных сообщений. Тор: Легенда викингов / Legends of Valhalla: Thor (2011) HDRip | Лицензия

15 | 6

698.21 МБ

В этой теме нет новых непрочитанных сообщений. Тор: Легенда викингов / Legends of Valhalla: Thor (2011) HDRip | Лицензия

226 | 15

1.37 ГБ

В этой теме нет новых непрочитанных сообщений. Тор / Thor (2011) BDRip 1080p

245 | 12

7.76 ГБ

В этой теме нет новых непрочитанных сообщений. Тор / Thor (2011) BDRip 1080p

61 | 9

4.37 ГБ

В этой теме нет новых непрочитанных сообщений. Тор / Thor (2011) BDRip 1080p от GORESEWAGE

22 | 7

15.93 ГБ




Вы не можете начинать темы
Вы не можете отвечать на сообщения
Вы не можете редактировать свои сообщения
Вы не можете удалять свои сообщения
Вы не можете добавлять вложения

Перейти:  
Для Мосгорсуда, Роскомнадзора и рекламодателей: mosgorsud-torrent[собачка]yandex.ru
 Вход
ppkBB3cker v.2 © 2008-2014 @ PPK
[ Time : 0.042s | 14 Queries | GZIP : Off ]

Торрент трекер RUTOR.IN, Не можете зайти на rutor.org? Какой новый адрес рутор? Какое зеркало рутор? Не работает rutor.org и зеркала? Тогда наш торрент специально для вас. Rutor.in неофициальное зеркало rutor. В случае если у Вас заблокирован rutor или вдруг Вы не можете на него зайти, то Вы без труда сможете скачать бесплатно и без рекламы последние новинки кино, игр, сериалов и прочего у нас, на Rutor.in. Не нужно использовать прокси, чтобы зайти на рутор, достаточно воспользоваться нашим ресурсом. Все новые фильмы, игры, сериалы, книги и музыка за 2013 и 2014 годы через торрент бесплатно. Скачивайте фильмы в хорошем качестве, игры для пк, xbox, playstation без регистрации. У нас вы найдете новые Зарубежные сериалы и Русские сериалы 2013, 2014, 2015 годов. Оставайтесь с нами, качайте любимые фильмы, игры, сериалы, книги и музыку.