img image001 image001 image001 image001 image001 image001 image001 image001 image001 image001 image001 image001 image001 image001 image001

Planets Sun Sun Sun
Статистика раздачи
Автор: Снежана | Размер: 2.93 ГБ | Добавлен: 27 июл 2013
Раздают: 55    Качают: 6
Скачать торрент
Скачать торрент
Описание торрента

СообщениеДобавлено: 27 июл 2013 

#77

Информация о фильме
Название: Чаггингтон: Веселые паровозики (сериал)
Оригинальное название: Chuggington for PSP
Год выпуска: 2008
Страна: Великобритания
Жанр: мультфильм, семейный
Продолжительность: 43x - 00:10:10
Перевод: Профессиональный (дублированный)


Режиссер: Сара Болл
Продюссер: Mandy Kamester, Сара Болл, Чарли Каминада,


В ролях:
Бриджид Харингтон (Brigid Harrington), Морган Овертон (Morgan Overton), Tony Terraciano, Изабелла Пальмиери (Isabella Palmieri), Имоджен Бэйли (Imogen Bailey), Энди Найман (Andy Nyman), Чарли Джордж (Charlie George), Мария Дарлинг (Maria Darling), Пол Патинг (Paul Panting), Саша Дхаван (Sacha Dhawan), Nicole Davis, Jadie Hobson, Тори Фейнштейн (Tori Feinstein), Анджело Кола (Angelo Cola), Колин МакФарлэйн (Colin McFarlane), Джордан Кларк (Jordan Clarke), Дэвид Гяси (David Gyasi), Ясмин Гаррад (Yasmin Garrad), Джейк Прэтт (Jake Pratt), Джейден Хэрмон (Jaden Harmon)


Описание:
Чаггингтон — настоящий мир поездов, в котором старательные паровозики-малыши Уилсон, Коко и Брюстер готовятся стать большими поездами.


1) Большая гонка
2) Помошники Фрастиньё
3) Скрипящий Уилсон
4) Не угнаться за Коко
5) Коко на экзамене
6) Коко и тоннель
7) Щенок для Коко
8) Спор Наджо и Коко
9) Всезнайка Брюстер
10) Супер Брюстер
11) Уилсон и слон
12) Рассеяный Брюстер
13) Ходж и магнит
14) Коко и белки
15) Банановый проказник
16) Уилсон и мороженное
17) Экскурсия старого паровоза Пита
18) Эдди опять опаздывает
19) Зефи и сирена
20) Коко на страже
21) Прогулка с Олвин
22) Брюстер и дракон
23) Проснись, Уилсон
24) Экскурсия Уилсона
25) Секрет Ходжа
26) Фруктовый праздник Фростини
27) Зефи-репортёр
28) Эмери супер звезда
29) Обезьянья работа Зефи
30) Инспектор Эмери
31) Доктор Уилсон
32) Невероятные приключения Мтамбо
33) Брюстер спешит на помощь
34) Уилсон и малярный вагон
35) Королевское путешествие Мтамбо
36) Уилсон и дикий ветер
37) Котел для Пита
38) Уилсон решает полетать
39) Маленький помощник Брюстера
40) Коко - босс
41) Уилсон и вагон с бумагой
42) Парад в честь Пита
43) Уилсон и мороженое




Качество: HDRip
Формат: MP4
Видео кодек: AVC
Аудио кодек: AAC LC
Видео: 480x272 (16:9), 25.000 fps, AVC, 794 Kbps
Аудио: AAC LC, 163 Kbps, 48.0 KHz, 2 ch 1-10(Rus. Dub)
Аудио: AAC LC, 128 Kbps, 48.0 KHz, 2 ch 11-43(Rus. Dub)

ЛОГ примерный для всех серий:
-[NoImage] x264 [info]: frame I:155 Avg QP:17.62 size: 30312
-[NoImage] x264 [info]: frame P:7907 Avg QP:20.31 size: 5125
-[NoImage] x264 [info]: frame B:7213 Avg QP:21.92 size: 2144

General
Complete name : Chuggington.for.PSP.mp4
Format : MPEG-4
Format profile : Base Media
Codec ID : isom
File size : 70.0 MiB
Duration : 10mn 11s
Overall bit rate : 961 Kbps
Encoded date : UTC 2012-05-21 15:50:55
Tagged date : UTC 2012-05-21 15:50:55

Video
ID : 1
Format : AVC
Format/Info : Advanced Video Codec
Format profile : Main@L3.0
Format settings, CABAC : Yes
Format settings, ReFrames : 3 frames
Codec ID : avc1
Codec ID/Info : Advanced Video Coding
Duration : 10mn 11s
Bit rate mode : Variable
Bit rate : 794 Kbps
Maximum bit rate : 3 886 Kbps
Width : 480 pixels
Height : 272 pixels
Display aspect ratio : 16:9
Frame rate mode : Constant
Frame rate : 25.000 fps
Color space : YUV
Chroma subsampling : 4:2:0
Bit depth : 8 bits
Scan type : Progressive
Bits/(Pixel*Frame) : 0.243
Stream size : 57.9 MiB (83%)
Writing library : x264 core 124 r2197 69a0443
Encoding settings : cabac=1 / ref=3 / deblock=1:0:0 / analyse=0x1:0x111 / me=umh / subme=10 / psy=1 / psy_rd=1.00:0.00 / mixed_ref=1 / me_range=32 / chroma_me=1 / trellis=2 / 8x8dct=0 / cqm=0 / deadzone=21,11 / fast_pskip=0 / chroma_qp_offset=-2 / threads=6 / sliced_threads=0 / nr=0 / decimate=1 / interlaced=0 / bluray_compat=0 / constrained_intra=0 / bframes=5 / b_pyramid=0 / b_adapt=2 / b_bias=0 / direct=3 / weightb=1 / open_gop=0 / weightp=2 / keyint=250 / keyint_min=25 / scenecut=40 / intra_refresh=0 / rc_lookahead=50 / rc=2pass / mbtree=0 / bitrate=794 / ratetol=2.0 / qcomp=1.00 / qpmin=10 / qpmax=51 / qpstep=4 / cplxblur=20.0 / qblur=0.5 / vbv_maxrate=10000 / vbv_bufsize=10000 / nal_hrd=none / ip_ratio=1.40 / pb_ratio=1.30 / aq=1:1.00
Encoded date : UTC 2012-05-21 15:43:23
Tagged date : UTC 2012-05-21 15:50:59

Audio
ID : 2
Format : AAC
Format/Info : Advanced Audio Codec
Format version : Version 4
Format profile : LC
Format settings, SBR : No
Codec ID : 40
Duration : 10mn 11s
Bit rate mode : Variable
Bit rate : 163 Kbps
Maximum bit rate : 208 Kbps
Channel(s) : 2 channels
Channel positions : Front: L R
Sampling rate : 48.0 KHz
Stream size : 11.9 MiB (17%)
Title : Aoaey?
Language : Russian
Encoded date : UTC 2012-05-21 15:50:55
Tagged date : UTC 2012-05-21 15:50:59[/code]






Релиз от:



   Похожие торренты   Торрент   Размер 
В этой теме нет новых непрочитанных сообщений. Весёлые паровозики из Чаггингтона / Chuggington [S01] (2008) DVDRip, WEBRip

51 | 21

7.33 ГБ

В этой теме нет новых непрочитанных сообщений. Весёлые паровозики из Чаггингтона / Chuggington [S02] (2010-2011) TVRip | A

932 | 26

2.7 ГБ

В этой теме нет новых непрочитанных сообщений. Весёлые паровозики из Чаггингтона / Chuggington [02x01-18;23-26] (2010-2011) TVRip | Карусель

93 | 9

2.23 ГБ

В этой теме нет новых непрочитанных сообщений. Чаггингтон: Веселые паровозики / Chuggington [S01-02] (2008-2011) DVDRip | D

237 | 122

11.65 ГБ

В этой теме нет новых непрочитанных сообщений. Чаггингтон: Веселые паровозики / Chuggington [01-10 из 10] (2008) BDRip-AVC от ExKinoRay

291 | 11

2.05 ГБ

В этой теме нет новых непрочитанных сообщений. Чаггингтон: Веселые паровозики / Chuggington [S01-03: 01-92 из 92] (2008-2011) 15xDVD5 R5 от New-Team | D | лицензия

26 | 12

43.93 ГБ

В этой теме нет новых непрочитанных сообщений. Чаггингтон: Веселые паровозики / Chuggington [S01-04: 01-118 из 118] (2008-2014) DVDRip, BDRip от New-Team | D | лицензия

205 | 77

17.85 ГБ




Вы не можете начинать темы
Вы не можете отвечать на сообщения
Вы не можете редактировать свои сообщения
Вы не можете удалять свои сообщения
Вы не можете добавлять вложения

Перейти:  
Для Мосгорсуда, Роскомнадзора и рекламодателей: mosgorsud-torrent[собачка]yandex.ru
 Вход
ppkBB3cker v.2 © 2008-2014 @ PPK
[ Time : 0.025s | 18 Queries | GZIP : Off ]

Торрент трекер RUTOR.IN, Не можете зайти на rutor.org? Какой новый адрес рутор? Какое зеркало рутор? Не работает rutor.org и зеркала? Тогда наш торрент специально для вас. Rutor.in неофициальное зеркало rutor. В случае если у Вас заблокирован rutor или вдруг Вы не можете на него зайти, то Вы без труда сможете скачать бесплатно и без рекламы последние новинки кино, игр, сериалов и прочего у нас, на Rutor.in. Не нужно использовать прокси, чтобы зайти на рутор, достаточно воспользоваться нашим ресурсом. Все новые фильмы, игры, сериалы, книги и музыка за 2013 и 2014 годы через торрент бесплатно. Скачивайте фильмы в хорошем качестве, игры для пк, xbox, playstation без регистрации. У нас вы найдете новые Зарубежные сериалы и Русские сериалы 2013, 2014, 2015 годов. Оставайтесь с нами, качайте любимые фильмы, игры, сериалы, книги и музыку.