img image001 image001 image001 image001 image001 image001 image001 image001 image001 image001 image001 image001 image001 image001 image001

Planets Sun Sun Sun
Статистика раздачи
Автор: Снежана | Размер: 7.51 ГБ | Добавлен: 27 июл 2013
Раздают: 65    Качают: 5
Скачать торрент
Скачать торрент
Описание торрента

СообщениеДобавлено: 27 июл 2013 

#77

Информация о фильме
Название: Вверх
Оригинальное название: Up
Год выхода: 2009
Жанр: мультфильм, драма, комедия, приключения, семейный
Режиссер: Пит Доктер, Боб Питерсон
Роли озвучивали: Эдвард Эснер, Кристофер Пламмер, Джордан Нагаи, Боб Питерсон, Делрой Линдо, Джером Рэнфт, Джон Ратценбергер, Дэвид Кэй, Эли Доктер, Джереми Лири
Роли дублировали: Армен Джигарханян, Дальвин Щербаков, Иван Чуваткин, Александр Стефанцов, Владимир Тягичев

Описание:
78-летний ворчун Карл Фредриксен считает, что жизнь обходит его стороной. Чтобы сдержать обещание, данное своей почившей жене, он решает осуществить свою мечту о великом приключении, привязав тысячи воздушных шариков к своему дому и улетев в дебри Южной Америки. Не пролетев и полмили, путешественник обнаруживает, что он ненароком прихватил с собой крайне разговорчивого и неисправимо жизнерадостного 8-летнего мальчика по имени Рассел…



Выпущено: США / Pixar Animation Studios
Продолжительность: 01:36:06
Озвучивание: Профессиональный (дублированный)

Файл
Формат: MKV
Формат 3D: Half OverUnder / Вертикальная анаморфная стереопара
Качество: BDrip 1080p
Видео: AVC / 1920х1080p / 23,976 fps / 9 036 Kbps
Аудио#1: Русский / AC3 / 48 KHz / 5.1 ch / 640 Kbps
Аудио#2: Украинский / AC3 / 48 KHz / 5.1 ch / 640 Kbps
Аудио#3: Английский / AC3 / 48 KHz / 5.1 ch / 640 Kbps
Субтитры: Отсутствуют

General
UniqueID : 181493561866576115308790977530697660573 (0x888A637817F941848E9F09834CBCB89D)
Complete name : F:DownloadsUp(3D)2009.halfOU.AC3(ash61).mkv
Format : Matroska
File size : 7.51 GiB
Duration : 1h 36mn
Overall bit rate : 11.2 Mbps
Movie name : Up 3D (2009) Вверх (Ash61)
Encoded date : UTC 2012-01-17 17:29:45
Writing application : mkvmerge v3.4.0 ('Rapunzel') сборка от May 15 2010 09:38:20
Writing library : libebml v0.8.0 + libmatroska v0.9.0

Video
ID : 1
Format : AVC
Format/Info : Advanced Video Codec
Format profile : High@L4.1
Format settings, CABAC : Yes
Format settings, ReFrames : 4 frames
Codec ID : V_MPEG4/ISO/AVC
Duration : 1h 36mn
Bit rate : 9 036 Kbps
Width : 1 920 pixels
Height : 1 080 pixels
Display aspect ratio : 16:9
Frame rate : 23.976 fps
Color space : YUV
Chroma subsampling : 4:2:0
Bit depth : 8 bits
Scan type : Progressive
Bits/(Pixel*Frame) : 0.182
Stream size : 6.07 GiB (81%)
Title : BDrip by Ash61
Writing library : x264 core 119 r2106 07efeb4
Encoding settings : cabac=1 / ref=4 / deblock=1:-3:-3 / analyse=0x3:0x113 / me=umh / subme=9 / psy=1 / psy_rd=1.00:0.15 / mixed_ref=1 / me_range=16 / chroma_me=1 / trellis=2 / 8x8dct=1 / cqm=0 / deadzone=21,11 / fast_pskip=1 / chroma_qp_offset=-3 / threads=3 / sliced_threads=0 / nr=0 / decimate=1 / interlaced=0 / bluray_compat=0 / constrained_intra=0 / bframes=6 / b_pyramid=2 / b_adapt=2 / b_bias=0 / direct=3 / weightb=1 / open_gop=0 / weightp=2 / keyint=250 / keyint_min=23 / scenecut=40 / intra_refresh=0 / rc_lookahead=60 / rc=crf / mbtree=1 / crf=17.0 / qcomp=0.70 / qpmin=0 / qpmax=69 / qpstep=4 / vbv_maxrate=40000 / vbv_bufsize=40000 / crf_max=0.0 / nal_hrd=none / ip_ratio=1.40 / aq=1:0.70

Audio #1
ID : 2
Format : AC-3
Format/Info : Audio Coding 3
Mode extension : CM (complete main)
Codec ID : A_AC3
Duration : 1h 36mn
Bit rate mode : Constant
Bit rate : 640 Kbps
Channel(s) : 6 channels
Channel positions : Front: L C R, Side: L R, LFE
Sampling rate : 48.0 KHz
Bit depth : 16 bits
Compression mode : Lossy
Stream size : 440 MiB (6%)
Language : Russian

Audio #2
ID : 3
Format : AC-3
Format/Info : Audio Coding 3
Mode extension : CM (complete main)
Codec ID : A_AC3
Duration : 1h 36mn
Bit rate mode : Constant
Bit rate : 640 Kbps
Channel(s) : 6 channels
Channel positions : Front: L C R, Side: L R, LFE
Sampling rate : 48.0 KHz
Bit depth : 16 bits
Compression mode : Lossy
Stream size : 440 MiB (6%)
Language : Ukrainian

Audio #3
ID : 4
Format : AC-3
Format/Info : Audio Coding 3
Mode extension : CM (complete main)
Codec ID : A_AC3
Duration : 1h 36mn
Bit rate mode : Constant
Bit rate : 640 Kbps
Channel(s) : 6 channels
Channel positions : Front: L C R, Side: L R, LFE
Sampling rate : 48.0 KHz
Bit depth : 16 bits
Compression mode : Lossy
Stream size : 440 MiB (6%)
Language : English

Menu
00:00:00.000 : :01
00:02:39.409 : :02
00:07:14.184 : :03
00:11:37.488 : :04
00:13:33.479 : :05
00:15:22.088 : :06
00:17:35.888 : :07
00:20:25.141 : :08
00:24:31.303 : :09
00:26:23.791 : :10
00:28:02.556 : :11
00:29:40.237 : :12
00:33:20.165 : :13
00:34:20.392 : :14
00:35:14.487 : :15
00:39:49.512 : :16
00:42:34.844 : :17
00:44:41.178 : :18
00:46:17.233 : :19
00:49:19.123 : :20
00:52:20.929 : :21
00:55:23.987 : :22
01:00:33.547 : :23
01:04:19.189 : :24
01:06:14.304 : :25
01:08:58.009 : :26
01:10:20.716 : :27
01:13:35.328 : :28
01:15:24.353 : :29
01:17:52.751 : :30
01:19:45.864 : :31
01:21:53.867 : :32
01:23:23.290 : :33
01:26:02.657 : :34
01:29:02.420 : :35







   Похожие торренты   Торрент   Размер 
В этой теме нет новых непрочитанных сообщений. Вверх / Up (2009) BDRip от HQ-ViDEO

221 | 33

2.14 ГБ

В этой теме нет новых непрочитанных сообщений. Вверх / Up (2009) BDRip 1080p

276 | 10

7.56 ГБ

В этой теме нет новых непрочитанных сообщений. Вверх / Up (2009) BDRip 1080p

552 | 65

4.37 ГБ

В этой теме нет новых непрочитанных сообщений. Up: The Video Game / Вверх (2009) PC | Лицензия

73 | 4

1.43 ГБ

В этой теме нет новых непрочитанных сообщений. Вверх / Up (2009) BDRip 720p

83 | 4

4.72 ГБ

В этой теме нет новых непрочитанных сообщений. Вверх / Up (2009) BDRip 720 от SuperMin

291 | 28

3.13 ГБ

В этой теме нет новых непрочитанных сообщений. Вверх / Up (2009) BDRip от HELLYWOOD

144 | 11

1.46 ГБ




Вы не можете начинать темы
Вы не можете отвечать на сообщения
Вы не можете редактировать свои сообщения
Вы не можете удалять свои сообщения
Вы не можете добавлять вложения

Перейти:  
Для Мосгорсуда, Роскомнадзора и рекламодателей: mosgorsud-torrent[собачка]yandex.ru
 Вход
ppkBB3cker v.2 © 2008-2014 @ PPK
[ Time : 0.021s | 14 Queries | GZIP : Off ]

Торрент трекер RUTOR.IN, Не можете зайти на rutor.org? Какой новый адрес рутор? Какое зеркало рутор? Не работает rutor.org и зеркала? Тогда наш торрент специально для вас. Rutor.in неофициальное зеркало rutor. В случае если у Вас заблокирован rutor или вдруг Вы не можете на него зайти, то Вы без труда сможете скачать бесплатно и без рекламы последние новинки кино, игр, сериалов и прочего у нас, на Rutor.in. Не нужно использовать прокси, чтобы зайти на рутор, достаточно воспользоваться нашим ресурсом. Все новые фильмы, игры, сериалы, книги и музыка за 2013 и 2014 годы через торрент бесплатно. Скачивайте фильмы в хорошем качестве, игры для пк, xbox, playstation без регистрации. У нас вы найдете новые Зарубежные сериалы и Русские сериалы 2013, 2014, 2015 годов. Оставайтесь с нами, качайте любимые фильмы, игры, сериалы, книги и музыку.