img image001 image001 image001 image001 image001 image001 image001 image001 image001 image001 image001 image001 image001 image001 image001

Planets Sun Sun Sun
Статистика раздачи
Автор: Снежана | Размер: 4.37 ГБ | Добавлен: 27 июл 2013
Раздают: 3    Качают: 2
Скачать торрент
Скачать торрент
Описание торрента

СообщениеДобавлено: 27 июл 2013 

#77

Название: Пираты! Банда неудачников
Оригинальное название: The Pirates! Band of Misfits
Страна: США, Великобритания
Жанр: Mультфильм, приключения, семейный
Год выпуска: 2012
Продолжительность: 01:24:29
Перевод: Дублированный (Лицензия)

Режиссер: Питер Лорд, Джефф Ньюитт

В ролях: Хью Грант, Брендан Глисон, Джереми Пивен, Брайан Блессид, Ленни Генри, Сальма Хайек, Коннор Бирн, Мартин Фриман, Эшли Дженсен, Питер Лорд.

Описание: Экранизация первой книги из серии романов писателя Гидеона Дефо, рассказывающих о банде незадачливых пиратов. В первой части пираты прибывают в Лондон, где знакомятся с молодым Чарльзом Дарвином и говорящим шимпанзе по имени Мистер Бобо, а также столкнутся с врагами, которые хотят их уничтожить.



Бонусы: Анонсы

Тип релиза: DVD5
Формат: DVD-Video
Видео кодек: MPEG2
Аудио кодек: Dolby AC3
Видео: MPEG2 Video 720x576 (16:9) 25.00fps 9000kbps
Аудио: 1. Dolby AC3 48000Hz 6ch 448kbps. Russian
Аудио: 2. Dolby AC3 48000Hz 6ch 448kbps. Ukrainian
Cубтитры: Russian



Title: DATA
Size: 4.37 Gb ( 4 583 670 KBytes ) - DVD-5
Enabled regions: 1, 2, 3, 4, 5, 6, 7, 8

VTS_01 :
Play Length: 01:24:29
Video: PAL 16:9 (720x576) VBR, Auto Pan&Scan
Audio:
Russian (Dolby AC3, 6 ch)
Ukrainian (Dolby AC3, 6 ch)
Subtitles:
Russian

Menu Video:
PAL 16:9 (720x576) VBR
Auto Pan&Scan
Menu Audio:
Not specified (Dolby AC3, 6 ch)
Menu Subtitles:
Not specified
Menu Russian Language Unit :
Root Menu
Audio Menu
Chapter (PTT) Menu

General
Complete name : D:Мои фильмы и мультыPiraty.Banda neudacnikov.2012.D.DVD.ELEKTRI4KAVIDEO_TSVTS_01_1.VOB
Format : MPEG-PS
File size : 1 024 MiB
Duration : 19mn 45s
Overall bit rate : 7 249 Kbps

Video
ID : 224 (0xE0)
Format : MPEG Video
Format version : Version 2
Format profile : Main@Main
Format settings, BVOP : Yes
Format settings, Matrix : Default
Duration : 19mn 45s
Bit rate mode : Variable
Bit rate : 6 209 Kbps
Nominal bit rate : 9 000 Kbps
Width : 720 pixels
Height : 576 pixels
Display aspect ratio : 16:9
Frame rate : 25.000 fps
Standard : PAL
Color space : YUV
Chroma subsampling : 4:2:0
Bit depth : 8 bits
Scan type : Interlaced
Scan order : Top Field First
Compression mode : Lossy
Bits/(Pixel*Frame) : 0.599
Stream size : 877 MiB (86%)

Audio #1
ID : 128 (0x80)
Format : AC-3
Format/Info : Audio Coding 3
Mode extension : CM (complete main)
Duration : 19mn 43s
Bit rate mode : Constant
Bit rate : 448 Kbps
Channel(s) : 6 channels
Channel positions : Front: L C R, Side: L R, LFE
Sampling rate : 48.0 KHz
Bit depth : 16 bits
Compression mode : Lossy
Delay relative to video : 1s 0ms
Stream size : 63.2 MiB (6%)

Audio #2
ID : 129 (0x81)
Format : AC-3
Format/Info : Audio Coding 3
Mode extension : CM (complete main)
Duration : 19mn 43s
Bit rate mode : Constant
Bit rate : 448 Kbps
Channel(s) : 6 channels
Channel positions : Front: L C R, Side: L R, LFE
Sampling rate : 48.0 KHz
Bit depth : 16 bits
Compression mode : Lossy
Delay relative to video : 1s 0ms
Stream size : 63.2 MiB (6%)

Menu






   Похожие торренты   Торрент   Размер 
В этой теме нет новых непрочитанных сообщений. Пираты! Банда неудачников / The Pirates! Band of Misfits (2012) HDRip | Лицензия

15 | 6

700.5 МБ

В этой теме нет новых непрочитанных сообщений. Пираты! Банда неудачников / The Pirates! Band of Misfits (2012) DVDRip-AVC от R.G. AVI | AVC | Лицензия

25 | 3

1.46 ГБ

В этой теме нет новых непрочитанных сообщений. Пираты! Банда неудачников / The Pirates! Band of Misfits (2012) BDRip 1080p | Лицензия

15 | 8

5.74 ГБ

В этой теме нет новых непрочитанных сообщений. Пираты! Банда неудачников / The Pirates! Band of Misfits (2012) BDRip от HQCLUB | Лицензия

106 | 11

1.45 ГБ

В этой теме нет новых непрочитанных сообщений. Пираты! Банда неудачников / The Pirates! Band of Misfits (2012) BDRip-AVC от potroks | Лицензия

10 | 3

2.18 ГБ

В этой теме нет новых непрочитанных сообщений. Пираты! Банда неудачников / The Pirates! Band of Misfits (2012) BDRip 720p | Лицензия

7 | 4

3.55 ГБ

В этой теме нет новых непрочитанных сообщений. Пираты! Банда неудачников / The Pirates! Band of Misfits (2012) HDRip от Generalfilm | Лицензия

24 | 5

1.46 ГБ




Вы не можете начинать темы
Вы не можете отвечать на сообщения
Вы не можете редактировать свои сообщения
Вы не можете удалять свои сообщения
Вы не можете добавлять вложения

Перейти:  
Для Мосгорсуда, Роскомнадзора и рекламодателей: mosgorsud-torrent[собачка]yandex.ru
 Вход
ppkBB3cker v.2 © 2008-2014 @ PPK
[ Time : 2.279s | 13 Queries | GZIP : Off ]
CGP output time : 0.047s | 7 Queries | GZIP : Off

Торрент трекер RUTOR.IN, Не можете зайти на rutor.org? Какой новый адрес рутор? Какое зеркало рутор? Не работает rutor.org и зеркала? Тогда наш торрент специально для вас. Rutor.in неофициальное зеркало rutor. В случае если у Вас заблокирован rutor или вдруг Вы не можете на него зайти, то Вы без труда сможете скачать бесплатно и без рекламы последние новинки кино, игр, сериалов и прочего у нас, на Rutor.in. Не нужно использовать прокси, чтобы зайти на рутор, достаточно воспользоваться нашим ресурсом. Все новые фильмы, игры, сериалы, книги и музыка за 2013 и 2014 годы через торрент бесплатно. Скачивайте фильмы в хорошем качестве, игры для пк, xbox, playstation без регистрации. У нас вы найдете новые Зарубежные сериалы и Русские сериалы 2013, 2014, 2015 годов. Оставайтесь с нами, качайте любимые фильмы, игры, сериалы, книги и музыку.