img image001 image001 image001 image001 image001 image001 image001 image001 image001 image001 image001 image001 image001 image001 image001

Planets Sun Sun Sun
Статистика раздачи
Автор: Снежана | Размер: 5.8 ГБ | Добавлен: 27 июл 2013
Раздают: 15    Качают: 7
Скачать торрент
Скачать торрент
Описание торрента

СообщениеДобавлено: 27 июл 2013 

#77

Информация о фильме:
Название: Шрек Третий
Оригинальное название: Shrek the Third
Год выхода: 2007
Жанр: Фэнтези, Комедия, Приключения, Семейный, Мультфильм
Режиссер: Крис Миллер, Раман Хуи
В ролях: Майк Майерс (Shrek, озвучка), Эдди Мёрфи (Donkey, озвучка), Кэмерон Диаз (Princess Fiona, озвучка), Антонио Бандерас (Puss in Boots, озвучка), Джули Эндрюс (Queen, озвучка), Джон Клиз (King, озвучка), Руперт Эверет (Prince Charming, озвучка), Эрик Айдл (Merlin, озвучка), Джастин Тимберлэйк (Artie, озвучка), Сьюзан Блэйксли (Evil Queen, озвучка), Коуди Камерон (Pinocchio / Three Pigs, озвучка), Ларри Кинг (Doris, озвучка)

О фильме:
Королем может быть не каждый — особенно если вы не очень симпатичный великан. Когда Шрэк женился на принцессе Фионе, он меньше всего на свете хотел управлять Далекой-Далекой страной. Такой он невластолюбивый. Однако отец Фионы, король Гарольд, внезапно умирает, и корону должен унаследовать именно Шрэк. Как-никак, он все-таки муж наследницы.
Однако Шрэк наотрез отказывается от бремени власти, и решает отправиться вместе со своими старыми друзьями Ослом и Котом в сапогах на поиски кандидата на трон. Если Шрэк не найдет себе подходящей замены, ему придется управлять сказочной страной самому… и это надолго. Похоже, что король Артур — тот, кто им нужен.
Однако в отсутствие великана его старый враг принц по имени Чарминг замышляет всякие пакости, для чего и возвращается в сказочную страну. Шрэку придется очень постараться, чтобы спасти страну от происков врагов и от возможного переворота.



Выпущено: США
Продолжительность: 01:32:43
Перевод: Профессиональный (дублированный)

Файл:
Формат: MKV
Формат 3D: Half SideBySide / Горизонтальная анаморфная стереопара
Качество: BDrip 1080p
Видео: MPEG4 Video (H264) 1920x1080 23.98fps 6627 Kbps
Аудио 1: Russian : Dolby AC3 48000Hz 5.1ch 640 kbps
Аудио 2: English : DTS 48000Hz 5.1ch 1510kbps

Format : Matroska
File size : 5.80 GiB
Duration : 1h 32mn
Overall bit rate : 8 955 Kbps
Encoded date : UTC 2010-12-21 22:49:49
Writing application : mkvmerge v2.9.7 ('Tenderness') built on Jul 1 2009 18:43:35
Writing library : libebml v0.7.7 + libmatroska v0.8.1

Video
ID : 1
Format : AVC
Format/Info : Advanced Video Codec
Format profile : High@L4.0
Format settings, CABAC : Yes
Format settings, ReFrames : 4 frames
Muxing mode : Container profile=Unknown@4.0
Codec ID : V_MPEG4/ISO/AVC
Duration : 1h 32mn
Bit rate : 6 627 Kbps
Width : 1 920 pixels
Height : 1 080 pixels
Display aspect ratio : 16:9
Frame rate : 23.976 fps
Color space : YUV
Chroma subsampling : 4:2:0
Bit depth : 8 bits
Scan type : Progressive
Bits/(Pixel*Frame) : 0.133
Stream size : 4.29 GiB (74%)
Writing library : x264 core 110 r1820 fdcf2ae
Encoding settings : cabac=1 / ref=4 / deblock=1:-2:-2 / analyse=0x3:0x113 / me=umh / subme=7 / psy=1 / psy_rd=1.00:0.15 / mixed_ref=1 / me_range=16 / chroma_me=1 / trellis=2 / 8x8dct=1 / cqm=0 / deadzone=21,11 / fast_pskip=1 / chroma_qp_offset=-3 / threads=6 / sliced_threads=0 / nr=0 / decimate=1 / interlaced=0 / constrained_intra=0 / bframes=6 / b_pyramid=0 / b_adapt=2 / b_bias=0 / direct=3 / weightb=1 / open_gop=0 / weightp=2 / keyint=250 / keyint_min=23 / scenecut=40 / intra_refresh=0 / rc_lookahead=40 / rc=crf / mbtree=1 / crf=18.0 / qcomp=0.60 / qpmin=10 / qpmax=51 / qpstep=4 / ip_ratio=1.40 / aq=1:1.00
Language : English

Audio #1
ID : 2
Format : AC-3
Format/Info : Audio Coding 3
Mode extension : CM (complete main)
Codec ID : A_AC3
Duration : 1h 32mn
Bit rate mode : Constant
Bit rate : 640 Kbps
Channel(s) : 6 channels
Channel positions : Front: L C R, Side: L R, LFE
Sampling rate : 48.0 KHz
Bit depth : 16 bits
Stream size : 424 MiB (7%)
Title : Дубляж
Language : Russian

Audio #2
ID : 3
Format : DTS
Format/Info : Digital Theater Systems
Codec ID : A_DTS
Duration : 1h 32mn
Bit rate mode : Constant
Bit rate : 1 510 Kbps
Channel(s) : 6 channels
Channel positions : Front: L C R, Side: L R, LFE
Sampling rate : 48.0 KHz
Bit depth : 24 bits
Stream size : 1 001 MiB (17%)
Title : Английский
Language : English







   Похожие торренты   Торрент   Размер 
В этой теме нет новых непрочитанных сообщений. Шрек Третий / Shrek the Third (2007) BDRip 1080p от Youtracker | 3D-Video

55 | 9

6 ГБ

В этой теме нет новых непрочитанных сообщений. Шрек Третий / Shrek the Third (2007) BDRip от HQ-ViDEO

1237 | 61

1.46 ГБ

В этой теме нет новых непрочитанных сообщений. Шрек Третий / Shrek the Third (2007) BDRip от HQCLUB

244 | 27

2.03 ГБ

В этой теме нет новых непрочитанных сообщений. Shrek the Third / Шрек Третий (2007) PS2

29 | 14

1.23 ГБ

В этой теме нет новых непрочитанных сообщений. Шрек третий / Shrek The Third (2007) PC

991 | 65

2.47 ГБ

В этой теме нет новых непрочитанных сообщений. Шрек Третий / Shrek the Third (2007) DVD5

7 | 8

4.36 ГБ

В этой теме нет новых непрочитанных сообщений. Шрек 2 / Shrek 2 (2004) BDRip 1080p от Youtracker | 3D-Video

178 | 8

6.46 ГБ




Вы не можете начинать темы
Вы не можете отвечать на сообщения
Вы не можете редактировать свои сообщения
Вы не можете удалять свои сообщения
Вы не можете добавлять вложения

Перейти:  
Для Мосгорсуда, Роскомнадзора и рекламодателей: mosgorsud-torrent[собачка]yandex.ru
 Вход
ppkBB3cker v.2 © 2008-2014 @ PPK
[ Time : 0.028s | 15 Queries | GZIP : Off ]

Торрент трекер RUTOR.IN, Не можете зайти на rutor.org? Какой новый адрес рутор? Какое зеркало рутор? Не работает rutor.org и зеркала? Тогда наш торрент специально для вас. Rutor.in неофициальное зеркало rutor. В случае если у Вас заблокирован rutor или вдруг Вы не можете на него зайти, то Вы без труда сможете скачать бесплатно и без рекламы последние новинки кино, игр, сериалов и прочего у нас, на Rutor.in. Не нужно использовать прокси, чтобы зайти на рутор, достаточно воспользоваться нашим ресурсом. Все новые фильмы, игры, сериалы, книги и музыка за 2013 и 2014 годы через торрент бесплатно. Скачивайте фильмы в хорошем качестве, игры для пк, xbox, playstation без регистрации. У нас вы найдете новые Зарубежные сериалы и Русские сериалы 2013, 2014, 2015 годов. Оставайтесь с нами, качайте любимые фильмы, игры, сериалы, книги и музыку.