img image001 image001 image001 image001 image001 image001 image001 image001 image001 image001 image001 image001 image001 image001 image001

Planets Sun Sun Sun
Статистика раздачи
Автор: Снежана | Размер: 699.88 МБ | Добавлен: 27 июл 2013
Раздают: 0    Качают: 2
Скачать торрент
Скачать торрент
Описание торрента

СообщениеДобавлено: 27 июл 2013 

Пираты! Банда неудачников
The Pirates! Band of Misfits
(2012)
DVDRip-AVC [Hi10P] от FREEISLAND



Год выхода: 2012
Жанр: мультфильм, приключения, семейный

Режиссер: Питер Лорд, Джефф Ньюитт

Роли озвучивали:
Хью Грант, Брендан Глисон, Джереми Пивен, Брайан Блессид, Ленни Генри, Сальма Хайек, Коннор Бирн, Мартин Фриман, Эшли Дженсен, Питер Лорд

Описание:
Экранизация первой книги из серии романов писателя Гидеона Дефо, рассказывающих о банде незадачливых пиратов. В первой части пираты прибывают в Лондон, где знакомятся с молодым Чарльзом Дарвином и говорящим шимпанзе по имени Мистер Бобо, а также столкнутся с врагами, которые хотят их уничтожить.



Официальный сайт

Страна: США, Великобритания
Выпущено: Aardman Animations, Sony Pictures Animation, Columbia Pictures
Продолжительность: 1 ч. 18 м. 33 с.
Перевод: Дублированный [Лицензия]
Оригинальная разбивка на главы: сохранена

Примечание:
Бюджетный, качественный рипчик с обрезанными титрами в целях экономии битрейта.

Внимание!
Рип в High 10 Profile, в настоящее время не поддерживается большинством аппаратных проигрывателей.
Для корректного воспроизведения может потребоваться обновление ПО.
Владельцам несовместимого железа просьба не беспокоить, на трекере есть альтернативные релизы.

Качество: DVDRip-AVC Hi10P (SSIM: 0.9822847)
Исходник: DVD5
Контейнер: MKV
Видео кодек: x264 High10@L4.0
Аудио кодек: AC3
Видео: AVC at 1020 Кбит/сек, 720 x 436 @ 1024 x 436 (2.349) at 25.000 fps
Аудио: AC-3 at 224 Кбит/сек, 2 каналов, 48,0 КГц
Субтитры: русские, форсированные, на места без перевода (SRT/UTF-8)

Общее
Уникальный идентификатор : 249334518949842040762011394442922481273 (0xBB9414E52558D36B9E10C1CF9576D679)
Полное имя : Пираты! Банда неудачников [The Pirates! Band of Misfits] (2012) DVDRip-Hi10P by_F.HD.mkv
Формат : Matroska
Версия формата : Version 2
Размер файла : 700 Мбайт
Продолжительность : 1 ч. 18 м.
Общий поток : 1245 Кбит/сек
Название фильма : релиз от FREEISLAND.ORG
Дата кодирования : UTC 2012-05-26 09:20:09
Программа кодирования : mkvmerge v5.5.0 ('Healer') built on Apr 6 2012 21:43:24
Библиотека кодирования : libebml v1.2.3 + libmatroska v1.3.0

Видео
Идентификатор : 1
Формат : AVC
Формат/Информация : Advanced Video Codec
Профиль формата : High 10@L4.0
Параметр CABAC формата : Да
Параметр ReFrames формата : 16 кадров
Идентификатор кодека : V_MPEG4/ISO/AVC
Продолжительность : 1 ч. 18 м.
Битрейт : 1020 Кбит/сек
Ширина : 720 пикселей
Высота : 436 пикселей
Соотношение сторон : 2,35:1
Частота кадров : 25,000 кадров/сек
Цветовое пространство : YUV
Субдискретизация насыщенности : 4:2:0
Битовая глубина : 10 бит
Тип развёртки : Прогрессивная
Бит/(Пиксели*Кадры) : 0.130
Размер потока : 560 Мбайт (80%)
Библиотека кодирования : x264 core 124 r2197+666+27 2b69816 tMod [10-bit@all X86_64]
Настройки программы : cabac=1 / ref=16 / deblock=1:1:1 / analyse=0x3:0x133 / me=umh / subme=11 / psy=1 / fade_compensate=0.00 / psy_rd=1.00:0.10 / mixed_ref=1 / me_range=64 / chroma_me=1 / trellis=2 / 8x8dct=1 / cqm=0 / deadzone=21,11 / fast_pskip=0 / chroma_qp_offset=-3 / threads=12 / sliced_threads=0 / nr=0 / decimate=1 / interlaced=0 / bluray_compat=0 / constrained_intra=0 / fgo=0 / bframes=9 / b_pyramid=2 / b_adapt=2 / b_bias=0 / direct=3 / weightb=1 / open_gop=0 / weightp=2 / keyint=250 / keyint_min=25 / scenecut=40 / intra_refresh=0 / rc_lookahead=40 / rc=2pass / mbtree=0 / bitrate=1020 / ratetol=1.0 / qcomp=1.00 / qpmin=0 / qpmax=48 / qpstep=4 / cplxblur=20.0 / qblur=0.5 / vbv_maxrate=50000 / vbv_bufsize=62500 / nal_hrd=none / ip_ratio=1.40 / pb_ratio=1.30 / aq=4:0.90
Default : Да
Forced : Нет
Основные цвета : BT.601-6 525, BT.1358 525, BT.1700 NTSC, SMPTE 170M
Характеристики трансфера : BT.601-6 525, BT.601-6 625, BT.1358 525, BT.1358 625, BT.1700 NTSC, SMPTE 170M
Коэффициенты матрицы : BT.601-6 525, BT.1358 525, BT.1700 NTSC, SMPTE 170M

Аудио
Идентификатор : 2
Формат : AC-3
Формат/Информация : Audio Coding 3
Расширение режима : CM (complete main)
Идентификатор кодека : A_AC3
Продолжительность : 1 ч. 18 м.
Вид битрейта : Постоянный
Битрейт : 224 Кбит/сек
Каналы : 2 канала
Расположение каналов : Front: L R
Частота : 48,0 КГц
Битовая глубина : 16 бит
Метод сжатия : С потерями
Задержка видео : 3 с. 200 мс.
Размер потока : 126 Мбайт (18%)
Язык : Russian
Default : Да
Forced : Нет

Текст
Идентификатор : 3
Формат : UTF-8
Идентификатор кодека : S_TEXT/UTF8
Идентификатор кодека/Информация : UTF-8 Plain Text
Заголовок : на места без перевода
Язык : Russian
Default : Да
Forced : Да

Меню
00:00:00.000 : :01
00:05:38.120 : :02
00:09:37.680 : :03
00:13:58.200 : :04
00:19:02.000 : :05
00:25:20.040 : :06
00:31:11.760 : :07
00:35:13.480 : :08
00:39:44.360 : :09
00:44:46.880 : :10
00:49:13.720 : :11
00:53:42.160 : :12
00:57:59.240 : :13
01:05:21.920 : :14
01:12:35.520 : :15
01:18:21.120 : :16















Релиз от:

Если у вас возникают вопросы типа:
-почему у меня есть звук и отсутствует изображение?
-почему у меня рассыпается картинка?
-почему у меня картинка фонит синевой или зеленью?
-зачем и кому всё это нужно?
и тому подобные, читаем FAQ.
ссылка на FAQ запрещена правилами.

По этому, гуглим на тему спойлера (Что такое 10-ти битное видео (High 10 Profile - Hi10P), и как его смотреть?).



   Похожие торренты   Торрент   Размер 
В этой теме нет новых непрочитанных сообщений. Пираты! Банда неудачников / The Pirates! Band of Misfits (2012) DVDRip-AVC от R.G. AVI | AVC | Лицензия

25 | 3

1.46 ГБ

В этой теме нет новых непрочитанных сообщений. Пираты! Банда неудачников / The Pirates! Band of Misfits (2012) DVDRip | КПК от Generalfilm

3 | 2

291.36 МБ

В этой теме нет новых непрочитанных сообщений. Пираты! Банда неудачников / The Pirates! Band of Misfits (2012) BDRip от HELLYWOOD

14 | 24

1.7 ГБ

В этой теме нет новых непрочитанных сообщений. Пираты! Банда неудачников / The Pirates! Band of Misfits (2012) HDRip | КПК от Multibits

9 | 4

557.02 МБ

В этой теме нет новых непрочитанных сообщений. Пираты! Банда неудачников / The Pirates! Band of Misfits (2012) HDRip | Лицензия

15 | 6

700.5 МБ

В этой теме нет новых непрочитанных сообщений. Пираты! Банда неудачников / The Pirates! Band of Misfits (2012) DVD5 | Лицензия

3 | 2

4.37 ГБ

В этой теме нет новых непрочитанных сообщений. Пираты! Банда неудачников / The Pirates! Band of Misfits (2012) BDRip 1080p

26 | 5

4.38 ГБ




Вы не можете начинать темы
Вы не можете отвечать на сообщения
Вы не можете редактировать свои сообщения
Вы не можете удалять свои сообщения
Вы не можете добавлять вложения

Перейти:  
Для Мосгорсуда, Роскомнадзора и рекламодателей: mosgorsud-torrent[собачка]yandex.ru
 Вход
ppkBB3cker v.2 © 2008-2014 @ PPK
[ Time : 0.592s | 14 Queries | GZIP : Off ]

Торрент трекер RUTOR.IN, Не можете зайти на rutor.org? Какой новый адрес рутор? Какое зеркало рутор? Не работает rutor.org и зеркала? Тогда наш торрент специально для вас. Rutor.in неофициальное зеркало rutor. В случае если у Вас заблокирован rutor или вдруг Вы не можете на него зайти, то Вы без труда сможете скачать бесплатно и без рекламы последние новинки кино, игр, сериалов и прочего у нас, на Rutor.in. Не нужно использовать прокси, чтобы зайти на рутор, достаточно воспользоваться нашим ресурсом. Все новые фильмы, игры, сериалы, книги и музыка за 2013 и 2014 годы через торрент бесплатно. Скачивайте фильмы в хорошем качестве, игры для пк, xbox, playstation без регистрации. У нас вы найдете новые Зарубежные сериалы и Русские сериалы 2013, 2014, 2015 годов. Оставайтесь с нами, качайте любимые фильмы, игры, сериалы, книги и музыку.