img image001 image001 image001 image001 image001 image001 image001 image001 image001 image001 image001 image001 image001 image001 image001

Planets Sun Sun Sun
Статистика раздачи
Автор: Снежана | Размер: 6.42 ГБ | Добавлен: 27 июл 2013
Раздают: 195    Качают: 10
Скачать торрент
Скачать торрент
Описание торрента

СообщениеДобавлено: 27 июл 2013 

#77

Информация о фильме:
Название: Как приручить дракона
Оригинальное название: How to Train Your Dragon
Год выхода: 2010
Жанр: фэнтези, комедия, приключения, семейный, мультфильм
Режиссер: Дин ДеБлуа, Крис Сандерс
В ролях: Джей Барушель, Джерард Батлер, Крэйг Фергюсон, Америка Феррера, Джона Хилл, Кристофер Минц-Плассе, ТиДжей Миллер, Кристен Уиг, Робин Аткин Даунс, Филип МакГрэйд, Кирон Эллиотт, Эшли Дженсен

О фильме:
Вы узнаете историю подростка Иккинга, которому не слишком близки традиции его героического племени, много лет ведущего войну с драконами. Мир Иккинга переворачивается с ног на голову, когда он неожиданно встречает дракона Беззубика, который поможет ему и другим викингам увидеть привычный мир с совершенно другой стороны…



Выпущено: США
Продолжительность: 01:37:52
Перевод: Профессиональный (полное дублирование)

Файл:
Формат: MKV
Формат 3D: Half SideBySide / Горизонтальная анаморфная стереопара
Качество: BDRip 1080p
Видео: MPEG4 Video (H264) 1920x1080 23.98fps 7911 Kbps
Аудио1: russian Dolby AC3 48000Hz 6ch 640kbps
Аудио2: english Dolby AC3 48000Hz 6ch 640kbps

Format : Matroska
File size : 6.42 GiB
Duration : 1h 37mn
Overall bit rate : 9 378 Kbps
Encoded date : UTC 2010-10-26 23:19:41
Writing application : mkvmerge v2.9.7 ('Tenderness') built on Jul 1 2009 18:43:35
Writing library : libebml v0.7.7 + libmatroska v0.8.1

Video
ID : 1
Format : AVC
Format/Info : Advanced Video Codec
Format profile : High@L4.1
Format settings, CABAC : Yes
Format settings, ReFrames : 4 frames
Format settings, GOP : M=4, N=16
Muxing mode : Container profile=Unknown@4.1
Codec ID : V_MPEG4/ISO/AVC
Duration : 1h 37mn
Bit rate : 7 911 Kbps
Width : 1 920 pixels
Height : 1 080 pixels
Display aspect ratio : 16:9
Frame rate : 23.976 fps
Color space : YUV
Chroma subsampling : 4:2:0
Bit depth : 8 bits
Scan type : Progressive
Bits/(Pixel*Frame) : 0.159
Stream size : 5.41 GiB (84%)
Writing library : x264 core 107 r1745 4785e8e
Encoding settings : cabac=1 / ref=4 / deblock=1:-1:-1 / analyse=0x3:0x113 / me=umh / subme=9 / psy=1 / psy_rd=1.00:0.15 / mixed_ref=1 / me_range=16 / chroma_me=1 / trellis=1 / 8x8dct=1 / cqm=0 / deadzone=21,11 / fast_pskip=0 / chroma_qp_offset=-3 / threads=12 / sliced_threads=0 / nr=0 / decimate=1 / interlaced=0 / constrained_intra=0 / bframes=3 / b_pyramid=2 / b_adapt=1 / b_bias=0 / direct=3 / weightb=1 / open_gop=0 / weightp=2 / keyint=250 / keyint_min=23 / scenecut=40 / intra_refresh=0 / rc_lookahead=40 / rc=crf / mbtree=1 / crf=18.0 / qcomp=0.60 / qpmin=10 / qpmax=51 / qpstep=4 / ip_ratio=1.40 / aq=1:1.00
Language : English

Audio #1
ID : 2
Format : AC-3
Format/Info : Audio Coding 3
Mode extension : CM (complete main)
Codec ID : A_AC3
Duration : 1h 37mn
Bit rate mode : Constant
Bit rate : 640 Kbps
Channel(s) : 6 channels
Channel positions : Front: L C R, Side: L R, LFE
Sampling rate : 48.0 KHz
Bit depth : 16 bits
Stream size : 449 MiB (7%)
Language : Russian

Audio #2
ID : 3
Format : AC-3
Format/Info : Audio Coding 3
Mode extension : CM (complete main)
Codec ID : A_AC3
Duration : 1h 37mn
Bit rate mode : Constant
Bit rate : 640 Kbps
Channel(s) : 6 channels
Channel positions : Front: L C R, Side: L R, LFE
Sampling rate : 48.0 KHz
Bit depth : 16 bits
Video delay : 24ms
Stream size : 449 MiB (7%)
Language : English

Menu
00:00:00.000 : en:00:00:00.000
00:08:39.811 : en:00:08:39.811
00:11:31.983 : en:00:11:31.983
00:15:11.035 : en:00:15:11.035
00:21:57.107 : en:00:21:57.107
00:27:41.702 : en:00:27:41.702
00:33:14.201 : en:00:33:14.201
00:39:07.136 : en:00:39:07.136
00:43:28.731 : en:00:43:28.731
00:47:08.367 : en:00:47:08.367
00:49:47.193 : en:00:49:47.193
00:59:55.801 : en:00:59:55.801
01:04:47.383 : en:01:04:47.383
01:09:28.164 : en:01:09:28.164
01:12:38.187 : en:01:12:38.187
01:23:26.043 : en:01:23:26.043
01:28:54.496 : en:01:28:54.496







   Похожие торренты   Торрент   Размер 
В этой теме нет новых непрочитанных сообщений. Как приручить дракона / How to Train Your Dragon (2010) BDRip 1080p от NOLIMITS-TEAM | 3D-Video

29 | 4

4.37 ГБ

В этой теме нет новых непрочитанных сообщений. Как приручить дракона / How to Train Your Dragon (2010) BDRip от HQ-ViDEO

36 | 15

1.98 ГБ

В этой теме нет новых непрочитанных сообщений. Как приручить дракона / How to Train Your Dragon (2010) BDRip 720p | 3D-video (Анаглиф)

33 | 3

2.75 ГБ

В этой теме нет новых непрочитанных сообщений. Как приручить дракона 2 / How to Train Your Dragon 2 (2014) BDRip 1080p | 3D-Video | HSBS | Лицензия | 60 fps

458 | 33

14.89 ГБ

В этой теме нет новых непрочитанных сообщений. Как приручить дракона 2 / How to Train Your Dragon 2 (2014) BDRip 1080p от Ash61 | 3D-Video | halfOU

1184 | 99

7.44 ГБ

В этой теме нет новых непрочитанных сообщений. Как приручить дракона / How to Train Your Dragon (2010) BDRip 720p от NOLIMITS-TEAM | 3D-Video

33 | 3

2.18 ГБ

В этой теме нет новых непрочитанных сообщений. Как приручить дракона / How to Train Your Dragon (2010) BDRip 1080p

155 | 16

4.37 ГБ




Вы не можете начинать темы
Вы не можете отвечать на сообщения
Вы не можете редактировать свои сообщения
Вы не можете удалять свои сообщения
Вы не можете добавлять вложения

Перейти:  
Для Мосгорсуда, Роскомнадзора и рекламодателей: mosgorsud-torrent[собачка]yandex.ru
 Вход
ppkBB3cker v.2 © 2008-2014 @ PPK
[ Time : 0.021s | 14 Queries | GZIP : Off ]

Торрент трекер RUTOR.IN, Не можете зайти на rutor.org? Какой новый адрес рутор? Какое зеркало рутор? Не работает rutor.org и зеркала? Тогда наш торрент специально для вас. Rutor.in неофициальное зеркало rutor. В случае если у Вас заблокирован rutor или вдруг Вы не можете на него зайти, то Вы без труда сможете скачать бесплатно и без рекламы последние новинки кино, игр, сериалов и прочего у нас, на Rutor.in. Не нужно использовать прокси, чтобы зайти на рутор, достаточно воспользоваться нашим ресурсом. Все новые фильмы, игры, сериалы, книги и музыка за 2013 и 2014 годы через торрент бесплатно. Скачивайте фильмы в хорошем качестве, игры для пк, xbox, playstation без регистрации. У нас вы найдете новые Зарубежные сериалы и Русские сериалы 2013, 2014, 2015 годов. Оставайтесь с нами, качайте любимые фильмы, игры, сериалы, книги и музыку.