img image001 image001 image001 image001 image001 image001 image001 image001 image001 image001 image001 image001 image001 image001 image001 image001

Planets Sun Sun Sun
Статистика раздачи
Автор: Снежана | Размер: 4.37 ГБ | Добавлен: 27 июл 2013
Раздают: 10    Качают: 3
Скачать торрент
Скачать торрент
Описание торрента

СообщениеДобавлено: 27 июл 2013 

#77

Кот в сапогах / Puss in Boots (2011) 3D BDRip 1080p от NOLIMITS-TEAM | Горизонтальная стереопара


Информация о фильме
Название: Кот в сапогах
Оригинальное название: Puss in Boots
Год выхода: 2011
Жанр: мультфильм, фэнтези, комедия, приключения
Режиссер: Крис Миллер
В ролях: Антонио Бандерас, Сальма Хайек, Зак Галифианакис, Билли Боб Торнтон, Эми Седарис, Констанс Мари, Гильермо дель Торо, Рич Дитль, Райан Крего, Том Вилер

О фильме: Мечи пересекутся и сердца будут разбиты в приключениях с одним из самых любимых персонажей из Шрэка — котом в сапогах. Это удалая поездка ранних лет кота в сапогах, когда он объединяется с умным Шалтай-Болтаем и сообразительной Китти, чтобы украсть знаменитого Гуся, несущего золотые яйца.

Выпущено: США, Buckaroo Entertainment
Продолжительность: 01:30:14
Перевод: Дублированный
Субтитры: Английские (полные), Русские(полные), Русские(форсирующие)

Файл
Качество: BDRip 1080p (исходник Blu-ray 3D Disc)
Видео: 1920x816, 6 552 Кбит/сек, 23.976 кадр/сек, AVC, x264, 2.35:1, 0.174 Бит/(Пиксели*Кадры)
Аудио: AC-3, 384 Кбит/сек, 6 канала(ов), 48,0 КГц
Чаптеры: Есть
Размер: 4.37 Гб





Релиз Группа | Автор Рипа:
Бюджет Фильма: $130 000 000
Кассовые сборы: $554 130 561 + $43 870 271







Format : Matroska
Format version : Version 2
File size : 4.37 GiB
Duration : 1h 30mn
Overall bit rate : 6 938 Kbps
Movie name : Rip by NigAndr (NOLIMITS-TEAM.RU)
Encoded date : UTC 2012-06-01 11:36:59
Writing application : mkvmerge v5.5.0 ('Healer') built on Apr 6 2012 21:43:24
Writing library : libebml v1.2.3 + libmatroska v1.3.0

Video
ID : 1
Format : AVC
Format/Info : Advanced Video Codec
Format profile : High@L4.1
Format settings, CABAC : Yes
Format settings, ReFrames : 5 frames
Codec ID : V_MPEG4/ISO/AVC
Duration : 1h 30mn
Bit rate : 6 552 Kbps
Width : 1 920 pixels
Height : 816 pixels
Display aspect ratio : 2.35:1
Original display aspect ratio : 2.35:1
Frame rate : 23.976 fps
Color space : YUV
Chroma subsampling : 4:2:0
Bit depth : 8 bits
Scan type : Progressive
Bits/(Pixel*Frame) : 0.174
Stream size : 4.04 GiB (92%)
Title : Кот в сапогах.3D.BDRip.1080р.NOLIMITS-TEAM.RU
Writing library : x264 core 122 r2184 5c85e0a
Encoding settings : cabac=1 / ref=5 / deblock=1:-3:-2 / analyse=0x3:0x113 / me=umh / subme=11 / psy=1 / psy_rd=1.00:0.10 / mixed_ref=1 / me_range=32 / chroma_me=1 / trellis=2 / 8x8dct=1 / cqm=0 / deadzone=21,11 / fast_pskip=0 / chroma_qp_offset=-3 / threads=6 / sliced_threads=0 / slices=4 / nr=0 / decimate=0 / interlaced=0 / bluray_compat=0 / constrained_intra=0 / bframes=5 / b_pyramid=2 / b_adapt=2 / b_bias=0 / direct=3 / weightb=1 / open_gop=0 / weightp=2 / keyint=240 / keyint_min=24 / scenecut=40 / intra_refresh=0 / rc_lookahead=60 / rc=2pass / mbtree=1 / bitrate=6552 / ratetol=2.0 / qcomp=0.60 / qpmin=0 / qpmax=51 / qpstep=4 / cplxblur=20.0 / qblur=0.5 / ip_ratio=1.40 / aq=1:1.00
Language : English
Default : Yes
Forced : No

Audio
ID : 2
Format : AC-3
Format/Info : Audio Coding 3
Mode extension : CM (complete main)
Codec ID : A_AC3
Duration : 1h 30mn
Bit rate mode : Constant
Bit rate : 384 Kbps
Channel(s) : 6 channels
Channel positions : Front: L C R, Side: L R, LFE
Sampling rate : 48.0 KHz
Bit depth : 16 bits
Compression mode : Lossy
Stream size : 248 MiB (6%)
Title : Дубляж
Language : Russian
Default : Yes
Forced : No

Text #1
ID : 3
Format : UTF-8
Codec ID : S_TEXT/UTF8
Codec ID/Info : UTF-8 Plain Text
Title : рус. полные
Language : Russian
Default : No
Forced : No

Text #2
ID : 4
Format : UTF-8
Codec ID : S_TEXT/UTF8
Codec ID/Info : UTF-8 Plain Text
Title : Англ.полные
Language : English
Default : No
Forced : No

Text #3
ID : 5
Format : UTF-8
Codec ID : S_TEXT/UTF8
Codec ID/Info : UTF-8 Plain Text
Title : Рус.форс.
Language : Russian
Default : Yes
Forced : Yes

Menu
00:00:00.000 : en:00:00:00.000
00:03:25.247 : en:00:03:25.247
00:07:20.148 : en:00:07:20.148
00:11:46.831 : en:00:11:46.831
00:15:53.369 : en:00:15:53.369
00:19:23.537 : en:00:19:23.537
00:25:58.348 : en:00:25:58.348
00:29:22.427 : en:00:29:22.427
00:34:06.461 : en:00:34:06.461
00:39:17.438 : en:00:39:17.438
00:44:12.108 : en:00:44:12.108
00:49:34.054 : en:00:49:34.054
00:54:05.951 : en:00:54:05.951
00:57:38.205 : en:00:57:38.205
01:03:05.991 : en:01:03:05.991
01:08:14.716 : en:01:08:14.716
01:16:51.774 : en:01:16:51.774
01:19:42.194 : en:01:19:42.194



   Похожие торренты   Торрент   Размер 
В этой теме нет новых непрочитанных сообщений. Кот в сапогах / Puss in Boots (2011) BDRip-AVC от HELLYWOOD | Лицензия

43 | 1

1.46 ГБ

В этой теме нет новых непрочитанных сообщений. Кот в Сапогах / Puss in Boots (2011) BDRip-720p | Дополнительные материалы

12 | 2

1.76 ГБ

В этой теме нет новых непрочитанных сообщений. Кот в сапогах: Три Чертенка / Puss in Boots: The Three Diablos (2011) BDRip 720 от SuperMin

420 | 8

387.79 МБ

В этой теме нет новых непрочитанных сообщений. Кот в сапогах / Puss in Boots (2011) BDRip 720p от HELLYWOOD | Лицензия

9 | 0

4.37 ГБ

В этой теме нет новых непрочитанных сообщений. Кот в сапогах / Puss in Boots (2011) BDRip 720p от Leonardo and Scarabey

447 | 73

2.46 ГБ

В этой теме нет новых непрочитанных сообщений. Кот в сапогах / Puss in Boots (1968) HDTVRip-AVC от SDIncorporation

24 | 0

315.19 МБ

В этой теме нет новых непрочитанных сообщений. Рождественские истории 4: Кот в сапогах / Christmas Stories 4: Puss in Boots CE (2015) РС

4275 | 106

1.35 ГБ




Вы не можете начинать темы
Вы не можете отвечать на сообщения
Вы не можете редактировать свои сообщения
Вы не можете удалять свои сообщения
Вы не можете добавлять вложения

Перейти:  
 Вход
ppkBB3cker v.2 © 2008-2014 @ PPK
[ Time : 0.029s | 17 Queries | GZIP : Off ]

cron