img image001 image001 image001 image001 image001 image001 image001 image001 image001 image001 image001 image001 image001 image001 image001

Planets Sun Sun Sun
Статистика раздачи
Автор: Снежана | Размер: 4.37 ГБ | Добавлен: 27 июл 2013
Раздают: 9    Качают: 2
Скачать торрент
Скачать торрент
Описание торрента

СообщениеДобавлено: 27 июл 2013 

#77

Информация о фильме
Название: Смелый большой панда
Оригинальное название: Little Big Panda
Год выхода: 2011
Жанр: мультфильм
Режиссер: Грег Манваринг, Michael Schoemann
В ролях: Nancy Van Iderstine, Джейн Алан, Джо Кукер, Пейдж Б. Франклин, Джессика Ги, Грант Джордж, Барбара Гудсон, Кент Хэмптон, Брент Генри, Стив Крамер

О фильме: Человек против дикой природы! Жизнь обитателей бамбуковой рощи под угрозой. Остановить армию двуногих варваров никому не под силу… Кроме отважного, ловкого, неуязвимого и остроумного Панды. Он окажется в самом сердце веселых приключений и опасных испытаний, чтобы спасти сородичей и стать Царем зверей!



Выпущено: Benchmark Entertainment Picture Productions
Продолжительность: 01:27:26
Перевод: Дублированный (лицензия)

Файл
Кодек: x264
Качество: BDRip (источник: Blu-ray Disc)
Видео: 1920x1080 (16:9), 24 fps, 6515 kbps
Звук: AC-3, 6 ch, 640 kbps
Скачать: сэмпл

Скриншоты

Общее
Уникальный идентификатор : 205804418401459312499049193831352912928 (0x9AD47D3CC74EB6FCAA9DC00998DA4C20)
Полное имя : Little.Big.Panda.2011.BDRip.1080p.Rus.mkv
Формат : Matroska
Версия формата : Version 2
Размер файла : 4,37 Гбайт
Продолжительность : 1 ч. 27 м.
Общий поток : 7156 Кбит/сек
Название фильма : Смелый большой панда / Little Big Panda (2011)
Дата кодирования : UTC 2012-06-06 07:10:44
Программа кодирования : mkvmerge v5.5.0 ('Healer') built on Apr 6 2012 21:43:24
Библиотека кодирования : libebml v1.2.3 + libmatroska v1.3.0

Видео
Идентификатор : 1
Формат : AVC
Формат/Информация : Advanced Video Codec
Профиль формата : High@L4.1
Параметр CABAC формата : Да
Параметр ReFrames формата : 4 кадра
Идентификатор кодека : V_MPEG4/ISO/AVC
Продолжительность : 1 ч. 27 м.
Битрейт : 6515 Кбит/сек
Ширина : 1920 пикселей
Высота : 1080 пикселей
Соотношение сторон : 16:9
Частота кадров : 24,000 кадра/сек
Цветовое пространство : YUV
Субдискретизация насыщенности : 4:2:0
Битовая глубина : 8 бит
Тип развёртки : Прогрессивная
Бит/(Пиксели*Кадры) : 0.131
Размер потока : 3,89 Гбайт (89%)
Заголовок : Release by AlexKa
Библиотека кодирования : x264 core 125 r2200 999b753
Настройки программы : cabac=1 / ref=4 / deblock=1:0:0 / analyse=0x3:0x133 / me=umh / subme=10 / psy=1 / psy_rd=1.00:0.00 / mixed_ref=1 / me_range=32 / chroma_me=1 / trellis=2 / 8x8dct=1 / cqm=0 / deadzone=21,11 / fast_pskip=0 / chroma_qp_offset=-2 / threads=12 / lookahead_threads=2 / sliced_threads=0 / nr=0 / decimate=0 / interlaced=0 / bluray_compat=0 / constrained_intra=0 / bframes=3 / b_pyramid=2 / b_adapt=2 / b_bias=0 / direct=3 / weightb=1 / open_gop=0 / weightp=2 / keyint=240 / keyint_min=24 / scenecut=40 / intra_refresh=0 / rc_lookahead=60 / rc=2pass / mbtree=1 / bitrate=6515 / ratetol=1.0 / qcomp=0.60 / qpmin=0 / qpmax=69 / qpstep=4 / cplxblur=20.0 / qblur=0.5 / ip_ratio=1.40 / aq=1:1.00
Язык : German

Аудио
Идентификатор : 2
Формат : AC-3
Формат/Информация : Audio Coding 3
Расширение режима : CM (complete main)
Идентификатор кодека : A_AC3
Продолжительность : 1 ч. 27 м.
Вид битрейта : Постоянный
Битрейт : 640 Кбит/сек
Каналы : 6 каналов
Расположение каналов : Front: L C R, Side: L R, LFE
Частота : 48,0 КГц
Битовая глубина : 16 бит
Метод сжатия : С потерями
Размер потока : 400 Мбайт (9%)
Язык : Russian

Меню
00:00:00.000 : :Chapter 01
00:01:02.333 : :Chapter 02
00:08:49.916 : :Chapter 03
00:19:09.666 : :Chapter 04
00:31:13.250 : :Chapter 05
00:42:26.125 : :Chapter 06
00:53:53.958 : :Chapter 07
01:06:09.833 : :Chapter 08
01:16:32.375 : :Chapter 09



   Похожие торренты   Торрент   Размер 
В этой теме нет новых непрочитанных сообщений. Смелый большой панда / Little Big Panda (2011) BDRip-AVC от R.G. AVI | AVC

3 | 3

1.46 ГБ

В этой теме нет новых непрочитанных сообщений. Смелый большой панда / Little Big Panda (2011) HDRip | Лицензия

18 | 2

1.37 ГБ

В этой теме нет новых непрочитанных сообщений. Смелый большой панда / Little Big Panda (2011) DVDRip | Лицензия

6 | 2

699.89 МБ

В этой теме нет новых непрочитанных сообщений. Смелый большой панда / Little Big Panda (2011) DVD5 | Лицензия

4 | 2

3.17 ГБ

В этой теме нет новых непрочитанных сообщений. Смелый большой панда / Little Big Panda (2011) DVDRip от cinemastreet | КПК

4 | 2

191.59 МБ

В этой теме нет новых непрочитанных сообщений. Большая панда и маленькая панда: Дождливый день в цирке / Panda Kopanda / Panda! Go Panda! (1972) BDRip 1080p | Hi10p | P, A1

13 | 2

3.1 ГБ

В этой теме нет новых непрочитанных сообщений. Большая панда и маленькая панда / Panda Kopanda / Panda! Go Panda! (1972-1973) BDRip 1080p от NNNB | P, A

38 | 8

5.77 ГБ




Вы не можете начинать темы
Вы не можете отвечать на сообщения
Вы не можете редактировать свои сообщения
Вы не можете удалять свои сообщения
Вы не можете добавлять вложения

Перейти:  
Для Мосгорсуда, Роскомнадзора и рекламодателей: mosgorsud-torrent[собачка]yandex.ru
 Вход
ppkBB3cker v.2 © 2008-2014 @ PPK
[ Time : 0.026s | 14 Queries | GZIP : On ]

Торрент трекер RUTOR.IN, Не можете зайти на rutor.org? Какой новый адрес рутор? Какое зеркало рутор? Не работает rutor.org и зеркала? Тогда наш торрент специально для вас. Rutor.in неофициальное зеркало rutor. В случае если у Вас заблокирован rutor или вдруг Вы не можете на него зайти, то Вы без труда сможете скачать бесплатно и без рекламы последние новинки кино, игр, сериалов и прочего у нас, на Rutor.in. Не нужно использовать прокси, чтобы зайти на рутор, достаточно воспользоваться нашим ресурсом. Все новые фильмы, игры, сериалы, книги и музыка за 2013 и 2014 годы через торрент бесплатно. Скачивайте фильмы в хорошем качестве, игры для пк, xbox, playstation без регистрации. У нас вы найдете новые Зарубежные сериалы и Русские сериалы 2013, 2014, 2015 годов. Оставайтесь с нами, качайте любимые фильмы, игры, сериалы, книги и музыку.