img image001 image001 image001 image001 image001 image001 image001 image001 image001 image001 image001 image001 image001 image001 image001

Planets Sun Sun Sun
Статистика раздачи
Автор: Снежана | Размер: 2.43 ГБ | Добавлен: 27 июл 2013
Раздают: 3    Качают: 2
Скачать торрент
Скачать торрент
Описание торрента

СообщениеДобавлено: 27 июл 2013 

#77

Облачно, возможны осадки в виде фрикаделек / Cloudy with a Chance of Meatballs (2009) 3D BDRip 720p от NOLIMITS-TEAM | Горизонтальная стереопара


Информация о фильме
Название: Облачно, возможны осадки в виде фрикаделек
Оригинальное название: Cloudy with a Chance of Meatballs
Год выхода: 2009
Жанр: мультфильм, фэнтези, комедия, семейный
Режиссер: Фил Лорд, Крис Миллер
В ролях: Билл Хэйдер, Анна Фэрис, Джеймс Каан, Энди Сэмберг, Брюс Кэмпбелл, Мистер Ти, Бобби Дж. Томпсон, Бенджамин Брэтт, Нил Патрик Харрис, Эл Рокер

Сюжет фильма: Главный герой мультфильма - странный ученый Флинт Локвуд, который всегда хотел изобрести что-то такое, что сделает его родной городок счастливым. И вот, у него получилось! Еды теперь хватает всем, и она просто падает с неба, создавая новые пейзажи вокруг: можно любоваться закатом с живописных холмов из фруктового желе. Но иногда вкусные осадки в виде фрикаделек могут превратиться в настоящий торнадо из аппетитных, но уже опасных спагетти! Гениальному ученому и его друзьям предстоит исправить положение дел в сытом городке.

«Prepare to get served»


Выпущено: Columbia Pictures, Sony Pictures Animation (США)
Продолжительность: 01:29:47
Перевод: Дублированный
Субтитры: Russian (2 надписи)
Файл

Формат 3D: Half SideBySide | Горизонтальная стереопара
Качество: BDRip 720p (исходник Blu-ray 3D Disc)
Видео: 1280x544, 3100 Кбит/сек, 23.976 кадр/сек, AVC, x264, 2.35:1, 0.186 Бит/(Пиксели*Кадры)
Аудио: AC-3, 384 Кбит/сек, 6 канала(ов), 48,0 КГц (Русскиий)
Аудио: AC-3, 384 Кбит/сек, 6 канала(ов), 48,0 КГц (English)
Чаптеры: Есть
Размер: 2.43 Гб




Релиз Группа | Автор Рипа:
Бюджет Фильма: $100 000 000
Кассовые сборы: $242 988 466 + DVD в США : $42 440 496






Format : Matroska
Format version : Version 2
File size : 2.43 GiB
Duration : 1h 29mn
Overall bit rate : 3 871 Kbps
Movie name : Rip by NigAndr (NOLIMITS-TEAM.RU)
Encoded date : UTC 2012-06-15 16:07:05
Writing application : mkvmerge v5.6.0 ('Kenya Kane') built on May 27 2012 16:44:04
Writing library : libebml v1.2.3 + libmatroska v1.3.0

Video
ID : 1
Format : AVC
Format/Info : Advanced Video Codec
Format profile : High@L4.1
Format settings, CABAC : Yes
Format settings, ReFrames : 12 frames
Codec ID : V_MPEG4/ISO/AVC
Duration : 1h 29mn
Bit rate : 3 100 Kbps
Width : 1 280 pixels
Height : 544 pixels
Display aspect ratio : 2.35:1
Frame rate : 23.976 fps
Color space : YUV
Chroma subsampling : 4:2:0
Bit depth : 8 bits
Scan type : Progressive
Bits/(Pixel*Frame) : 0.186
Stream size : 1.90 GiB (78%)
Title : Облачно, возможны осадки в виде фрикаделек.(2009).3D.BDRip.720p.NOLIMITS-TEAM.RU
Writing library : x264 core 122 r2184 5c85e0a
Encoding settings : cabac=1 / ref=12 / deblock=1:-3:-2 / analyse=0x3:0x113 / me=umh / subme=11 / psy=1 / psy_rd=1.00:0.10 / mixed_ref=1 / me_range=32 / chroma_me=1 / trellis=2 / 8x8dct=1 / cqm=0 / deadzone=21,11 / fast_pskip=0 / chroma_qp_offset=-3 / threads=6 / sliced_threads=0 / slices=4 / nr=0 / decimate=0 / interlaced=0 / bluray_compat=0 / constrained_intra=0 / bframes=5 / b_pyramid=2 / b_adapt=2 / b_bias=0 / direct=3 / weightb=1 / open_gop=0 / weightp=2 / keyint=240 / keyint_min=24 / scenecut=40 / intra_refresh=0 / rc_lookahead=60 / rc=2pass / mbtree=1 / bitrate=3100 / ratetol=2.0 / qcomp=0.60 / qpmin=0 / qpmax=51 / qpstep=4 / cplxblur=20.0 / qblur=0.5 / ip_ratio=1.40 / aq=1:1.00
Language : English
Default : Yes
Forced : No

Audio #1
ID : 2
Format : AC-3
Format/Info : Audio Coding 3
Mode extension : CM (complete main)
Codec ID : A_AC3
Duration : 1h 29mn
Bit rate mode : Constant
Bit rate : 384 Kbps
Channel(s) : 6 channels
Channel positions : Front: L C R, Side: L R, LFE
Sampling rate : 48.0 KHz
Bit depth : 16 bits
Compression mode : Lossy
Stream size : 247 MiB (10%)
Title : Дубляж
Language : Russian
Default : Yes
Forced : No

Audio #2
ID : 3
Format : AC-3
Format/Info : Audio Coding 3
Mode extension : CM (complete main)
Codec ID : A_AC3
Duration : 1h 29mn
Bit rate mode : Constant
Bit rate : 384 Kbps
Channel(s) : 6 channels
Channel positions : Front: L C R, Side: L R, LFE
Sampling rate : 48.0 KHz
Bit depth : 16 bits
Compression mode : Lossy
Stream size : 247 MiB (10%)
Title : оригинал
Language : English
Default : No
Forced : No

Text
ID : 4
Format : UTF-8
Codec ID : S_TEXT/UTF8
Codec ID/Info : UTF-8 Plain Text
Title : Рус.(форс)
Language : Russian
Default : Yes
Forced : Yes

Menu
00:00:00.000 : en:00:00:00.000
00:04:47.913 : en:00:04:47.913
00:08:57.120 : en:00:08:57.120
00:14:34.040 : en:00:14:34.040
00:20:31.439 : en:00:20:31.439
00:24:27.049 : en:00:24:27.049
00:30:45.010 : en:00:30:45.010
00:36:31.773 : en:00:36:31.773
00:42:52.695 : en:00:42:52.695
00:46:39.588 : en:00:46:39.588
00:52:46.997 : en:00:52:46.997
00:55:10.724 : en:00:55:10.724
01:00:46.393 : en:01:00:46.393
01:05:47.360 : en:01:05:47.360
01:13:08.134 : en:01:13:08.134
01:17:50.040 : en:01:17:50.040



   Похожие торренты   Торрент   Размер 
В этой теме нет новых непрочитанных сообщений. Облачно, возможны осадки в виде фрикаделек / Cloudy with a Chance of Meatballs (2009) BDRip 1080p от NOLIMITS-TEAM | 3D-Video

3 | 2

4.37 ГБ

В этой теме нет новых непрочитанных сообщений. Облачно, возможны осадки в виде фрикаделек / Cloudy with a Chance of Meatballs (2009) BDRip от HQ-ViDEO | D

774 | 45

1.46 ГБ

В этой теме нет новых непрочитанных сообщений. Облачно, возможны осадки в виде фрикаделек / Cloudy with a Chance of Meatballs (2009) BDRip 720p от DHT-Movies

214 | 9

2.33 ГБ

В этой теме нет новых непрочитанных сообщений. Облачно, возможны осадки в виде фрикаделек / Cloudy with a Chance of Meatballs (2009) DVDRip от TTracker | 3D-Video / Анаглиф

13 | 4

1.55 ГБ

В этой теме нет новых непрочитанных сообщений. Облачно, возможны осадки в виде фрикаделек / Cloudy with a Chance of Meatballs (2008) BDRip 1080p | 3D-Video

1 | 3

4.68 ГБ

В этой теме нет новых непрочитанных сообщений. Облачно, возможны осадки в виде фрикаделек / Cloudy with a Chance of Meatballs (2009) BDRip от HQCLUB

158 | 26

2.02 ГБ

В этой теме нет новых непрочитанных сообщений. Облачно, возможны осадки в виде фрикаделек / Cloudy with a Chance of Meatballs (2009) BDRip от HELLYWOOD

60 | 114

2.02 ГБ




Вы не можете начинать темы
Вы не можете отвечать на сообщения
Вы не можете редактировать свои сообщения
Вы не можете удалять свои сообщения
Вы не можете добавлять вложения

Перейти:  
Для Мосгорсуда, Роскомнадзора и рекламодателей: mosgorsud-torrent[собачка]yandex.ru
 Вход
ppkBB3cker v.2 © 2008-2014 @ PPK
[ Time : 0.088s | 17 Queries | GZIP : Off ]

cron