img image001 image001 image001 image001 image001 image001 image001 image001 image001 image001 image001 image001 image001 image001 image001

Planets Sun Sun Sun
Статистика раздачи
Автор: Снежана | Размер: 3.12 ГБ | Добавлен: 27 июл 2013
Раздают: 129    Качают: 12
Скачать торрент
Скачать торрент
Описание торрента

СообщениеДобавлено: 27 июл 2013 

Мадагаскар 2 / Madagascar: Escape 2 Africa (2008) BDRip 720p
от DHT-Movies
«Осторожно, звери возвращаются!»

#77

Название: Мадагаскар 2
Оригинальное название: Madagascar: Escape 2 Africa
Год выхода: 2008
Жанр: мультфильм, комедия, приключения, семейный
Режиссер: Эрик Дарнелл, Том МакГрат



В ролях:

Бен Стиллер, Крис Рок, Дэвид Швиммер, Джада Пинкетт Смит, Саша Барон Коэн, Седрик зе Энтертейнер, Энди Рихтер, Берни Мак, Алек Болдуин, Шерри Шеперд, Уилл Ай Эм, Элиза Габриелли, Том МакГрат, Крис Миллер, Кристофер Найтс, Конрад Вернон, Куинн Демпси Стиллер, Деклан Свифт, Fred Tatasciore, Эрик Дарнелл, Уиллоу Смит

Описание:

Полная опасностей жизнь на Мадагаскаре не оправдала ожиданий привыкших к комфорту Нью-Йоркского зоопарка животных — льва Алекса, зебры Марти, жирафа Мелмана и бегемотихи Глории — и друзья решают сбежать с острова. По случайности, всю компанию заносит в Африку, где Алекс встречает свою семью, с которой он был разлучен в детстве. Неожиданно для себя Алекс понимает, что после жизни в зоопарке у него гораздо меньше общего с родственниками, чем ему хотелось бы…


Страна: США
Продолжительность: 01:29:24
Перевод: Дубляж (Профессиональный[Лицензия]) + Оригинал (Английский)
Субтитры: Русские/Английские UTF-8 (full)

Релиз группа: | by AVT83


Качество: BDRip 720p | Madagascar: Escape 2 Africa (2008) Blu-ray CEE 1080p AVC DD5.1
Формат: MKV
Видео кодек: H.264
Видео: 1280x720/16:9/23.976 fps/4 093 Kbps/0.185 Bits/(Pixel*Frame)
Аудио (Русский): 48 kHz, AC3 Dolby Digital, 3/2 (L,C,R,l,r) + LFE ch, ~ 448 kbps avg | ( Дубляж)
Аудио (Английский): 48 kHz, AC3 Dolby Digital, 3/2 (L,C,R,l,r) + LFE ch, ~ 448 kbps avg | (Оригинал)


avs [info]: 1280x720p 1:1 @ 2500000/104271 fps (cfr)
x264 [info]: using SAR=1/1
x264 [info]: using cpu capabilities: MMX2 SSE2Fast SSSE3 FastShuffle SSE4.2
x264 [info]: profile High, level 4.1
x264 [info]: frame I:1119 Avg QP:12.93 size:203515
x264 [info]: frame P:34954 Avg QP:17.57 size: 43310
x264 [info]: frame B:92544 Avg QP:22.89 size: 10828
x264 [info]: consecutive B-frames: 4.1% 3.7% 22.5% 34.2% 13.6% 14.4% 1.0% 6.0% 0.4% 0.1% 0.1%
x264 [info]: mb I I16..4: 7.2% 63.7% 29.1%
x264 [info]: mb P I16..4: 1.7% 11.3% 2.0% P16..4: 28.2% 27.0% 11.8% 0.0% 0.0% skip:18.1%
x264 [info]: mb B I16..4: 0.2% 1.8% 0.3% B16..8: 26.5% 13.3% 2.6% direct: 3.0% skip:52.2% L0:40.6% L1:44.5% BI:14.8%
x264 [info]: 8x8 transform intra:74.2% inter:55.6%
x264 [info]: direct mvs spatial:93.8% temporal:6.2%
x264 [info]: coded y,uvDC,uvAC intra: 80.7% 80.4% 52.9% inter: 17.8% 14.3% 7.9%
x264 [info]: i16 v,h,dc,p: 20% 13% 5% 63%
x264 [info]: i8 v,h,dc,ddl,ddr,vr,hd,vl,hu: 8% 9% 6% 9% 13% 13% 14% 12% 15%
x264 [info]: i4 v,h,dc,ddl,ddr,vr,hd,vl,hu: 9% 9% 7% 9% 16% 14% 14% 10% 12%
x264 [info]: i8c dc,h,v,p: 36% 26% 17% 21%
x264 [info]: Weighted P-Frames: Y:2.0% UV:1.4%
x264 [info]: ref P L0: 55.8% 8.7% 13.2% 6.5% 4.1% 4.1% 2.8% 2.2% 1.8% 0.7% 0.0%
x264 [info]: ref B L0: 79.8% 8.1% 4.8% 2.3% 2.2% 1.4% 1.0% 0.4%
x264 [info]: ref B L1: 92.3% 7.7%
x264 [info]: kb/s:4091.67

x264 [total]: encoded 128617 frames, 2.03 fps, 4091.67 kb/s
--------------------------------------------------------------------------------
Format : Matroska
Format version : Version 2
File size : 3.12 GiB
Duration : 1h 29mn
Overall bit rate : 4 990 Kbps
Encoded date : UTC 2012-06-22 04:09:47
Writing application : mkvmerge v4.0.0 ('The Stars were mine') built on Jun 6 2010 16:18:42
Writing library : libebml v1.0.0 + libmatroska v1.0.0

Video
ID : 1
Format : AVC
Format/Info : Advanced Video Codec
Format profile : High@L4.1
Format settings, CABAC : Yes
Format settings, ReFrames : 9 frames
Codec ID : V_MPEG4/ISO/AVC
Duration : 1h 29mn
Bit rate : 4 093 Kbps
Width : 1 280 pixels
Height : 720 pixels
Display aspect ratio : 16:9
Frame rate : 23.976 fps
Color space : YUV
Chroma subsampling : 4:2:0
Bit depth : 8 bits
Scan type : Progressive
Bits/(Pixel*Frame) : 0.185
Stream size : 2.49 GiB (80%)
Writing library : x264 core 119 r2106 07efeb4
Encoding settings : cabac=1 / ref=9 / deblock=1:-1:-1 / analyse=0x3:0x113 / me=umh / subme=11 / psy=1 / psy_rd=0.80:0.00 / mixed_ref=1 / me_range=32 / chroma_me=1 / trellis=2 / 8x8dct=1 / cqm=0 / deadzone=21,11 / fast_pskip=0 / chroma_qp_offset=-2 / threads=6 / sliced_threads=0 / nr=0 / decimate=0 / interlaced=0 / bluray_compat=0 / constrained_intra=0 / bframes=10 / b_pyramid=2 / b_adapt=2 / b_bias=0 / direct=3 / weightb=1 / open_gop=0 / weightp=2 / keyint=240 / keyint_min=23 / scenecut=40 / intra_refresh=0 / rc_lookahead=45 / rc=2pass / mbtree=1 / bitrate=4093 / ratetol=1.0 / qcomp=0.60 / qpmin=0 / qpmax=69 / qpstep=4 / cplxblur=20.0 / qblur=0.5 / ip_ratio=1.40 / aq=1:1.00
Language : English
Default : No
Forced : No

Audio #1
ID : 2
Format : AC-3
Format/Info : Audio Coding 3
Mode extension : CM (complete main)
Format settings, Endianness : Big
Codec ID : A_AC3
Duration : 1h 29mn
Bit rate mode : Constant
Bit rate : 448 Kbps
Channel(s) : 6 channels
Channel positions : Front: L C R, Side: L R, LFE
Sampling rate : 48.0 KHz
Bit depth : 16 bits
Compression mode : Lossy
Stream size : 286 MiB (9%)
Title : Дубляж
Language : Russian
Default : Yes
Forced : No

Audio #2
ID : 3
Format : AC-3
Format/Info : Audio Coding 3
Mode extension : CM (complete main)
Format settings, Endianness : Big
Codec ID : A_AC3
Duration : 1h 29mn
Bit rate mode : Constant
Bit rate : 448 Kbps
Channel(s) : 6 channels
Channel positions : Front: L C R, Side: L R, LFE
Sampling rate : 48.0 KHz
Bit depth : 16 bits
Compression mode : Lossy
Stream size : 286 MiB (9%)
Title : Оригинал
Language : English
Default : No
Forced : No

Text #1
ID : 4
Format : UTF-8
Codec ID : S_TEXT/UTF8
Codec ID/Info : UTF-8 Plain Text
Title : full
Language : Russian
Default : Yes
Forced : No

Text #2
ID : 5
Format : UTF-8
Codec ID : S_TEXT/UTF8
Codec ID/Info : UTF-8 Plain Text
Title : full
Language : English
Default : No
Forced : No

Мультфильм посвящен памяти комика Берни Мака, который озвучил Зубу и не дожил до премьеры три месяца.
Перед тем как начать работу над мультфильмом, команда аниматоров совершила поездку в Африку.
Родимое пятно на лапе Алекса по форме напоминает африканский материк.





   Похожие торренты   Торрент   Размер 
В этой теме нет новых непрочитанных сообщений. Мадагаскар 2 / Madagascar: Escape 2 Africa (2008) BDRip от HQ-ViDEO

618 | 90

1.94 ГБ

В этой теме нет новых непрочитанных сообщений. Мадагаскар 2 / Madagascar: Escape 2 Africa (2008) BDRip-AVC | iPad

159 | 8

1.95 ГБ

В этой теме нет новых непрочитанных сообщений. Мадагаскар 2 / Madagascar: Escape 2 Africa (2008) BDRip от HQCLUB

53 | 38

2.01 ГБ

В этой теме нет новых непрочитанных сообщений. Мадагаскар 2 / Madagascar: Escape 2 Africa (2008) BDRip 1080p

210 | 17

4.37 ГБ

В этой теме нет новых непрочитанных сообщений. Мадагаскар 2 / Madagascar: Escape 2 Africa (2008) BDRip-AVC от RAMpage CHG

20 | 5

701.76 МБ

В этой теме нет новых непрочитанных сообщений. Мадагаскар 1, 2 / Madagascar / Madagascar: Escape 2 Africa (2005-2008) 2xDVD9, DVD5 от Youtracker | D | Лицензия

150 | 5

15.39 ГБ

В этой теме нет новых непрочитанных сообщений. Мадагаскар 2 / Madagascar: Escape 2 Africa (2008) PC

571 | 18

3.18 ГБ




Вы не можете начинать темы
Вы не можете отвечать на сообщения
Вы не можете редактировать свои сообщения
Вы не можете удалять свои сообщения
Вы не можете добавлять вложения

Перейти:  
Для Мосгорсуда, Роскомнадзора и рекламодателей: mosgorsud-torrent[собачка]yandex.ru
 Вход
ppkBB3cker v.2 © 2008-2014 @ PPK
[ Time : 0.026s | 13 Queries | GZIP : Off ]
CGP output time : 0.024s | 5 Queries | GZIP : Off

Торрент трекер RUTOR.IN, Не можете зайти на rutor.org? Какой новый адрес рутор? Какое зеркало рутор? Не работает rutor.org и зеркала? Тогда наш торрент специально для вас. Rutor.in неофициальное зеркало rutor. В случае если у Вас заблокирован rutor или вдруг Вы не можете на него зайти, то Вы без труда сможете скачать бесплатно и без рекламы последние новинки кино, игр, сериалов и прочего у нас, на Rutor.in. Не нужно использовать прокси, чтобы зайти на рутор, достаточно воспользоваться нашим ресурсом. Все новые фильмы, игры, сериалы, книги и музыка за 2013 и 2014 годы через торрент бесплатно. Скачивайте фильмы в хорошем качестве, игры для пк, xbox, playstation без регистрации. У нас вы найдете новые Зарубежные сериалы и Русские сериалы 2013, 2014, 2015 годов. Оставайтесь с нами, качайте любимые фильмы, игры, сериалы, книги и музыку.