img image001 image001 image001 image001 image001 image001 image001 image001 image001 image001 image001 image001 image001 image001 image001

Planets Sun Sun Sun
Статистика раздачи
Автор: Снежана | Размер: 3.53 ГБ | Добавлен: 27 июл 2013
Раздают: 0    Качают: 4
Скачать торрент
Скачать торрент
Описание торрента

СообщениеДобавлено: 27 июл 2013 

#77

Информация о фильме
Название: Супермен против Элиты
Оригинальное название: Superman vs.The Elite
Год выхода: 2012
Жанр: мультфильм
Режиссер: Майкл Чанг / Michael Chang
В ролях: Поли Перретт, Джордж Ньюберн, Робин Аткин Даунс, Дэвид Кауфман, Джули Уитнер

О фильме:
Элита, команда супер-сильных антигероев, славится тем что убивает своих врагов. Несмотря на признание и одобрение которым пользуется Элита, Супермен знает, что они ошиблись, принося больше вреда, чем пользы своими методами. Напряженность в отношениях между ними, в итоге, завершится поединком на лунах Юпитера, в котором Супермен вынужден доказывать, что насилие никогда не бывает правильным.

Страна: США
Продолжительность: 01:14:13
Перевод: Профессиональный (дублированный) «CP Дистрибуция»

Файл
Кодек: x264 V_MPEG4/ISO/AVC
Качество: BDRip 1080p
Видео: 1920x1080p 6029 Kb/s 23,976 fps 0.121 bit/pixel
Звук:
AC3, 192 kb/s, 48.0 KHz (2 ch) - Дубляж [Лицензия]
AC3, 448 kb/s, 48.0 KHz (6 ch) - оригинал
Субтитры: отсутствуют


Видео
Идентификатор : 1
Формат : AVC
Формат/Информация : Advanced Video Codec
Профиль формата : High@L4.1
Параметр CABAC формата : Да
Параметр ReFrames формата : 4 кадра
Идентификатор кодека : V_MPEG4/ISO/AVC
Продолжительность : 1 ч. 14 м.
Битрейт : 6029 Кбит/сек
Ширина : 1920 пикс.
Высота : 1080 пикс.
Соотношение сторон : 16:9
Частота кадров : 23,976 кадр/сек
Цветовое пространство : YUV
Подвыборка цветности : 4:2:0
Битовая глубина : 8 бит
Тип развёртки : Прогрессивная
Бит/(Пиксели*Кадры) : 0.121
Размер потока : 3,13 Гбайт (89%)
Заголовок : Superman vs. The Elite (2012)
Библиотека кодирования : x264 core 125 r2200 999b753
Настройки программы : cabac=1 / ref=4 / deblock=1:-3:-3 / analyse=0x3:0x113 / me=tesa / subme=11 / psy=1 / psy_rd=0.95:0.00 / mixed_ref=1 / me_range=16 / chroma_me=1 / trellis=2 / 8x8dct=1 / cqm=0 / deadzone=21,11 / fast_pskip=0 / chroma_qp_offset=-2 / threads=12 / lookahead_threads=2 / sliced_threads=0 / nr=0 / decimate=0 / interlaced=0 / bluray_compat=0 / constrained_intra=0 / bframes=9 / b_pyramid=2 / b_adapt=2 / b_bias=0 / direct=3 / weightb=1 / open_gop=0 / weightp=2 / keyint=250 / keyint_min=23 / scenecut=40 / intra_refresh=0 / rc=crf / mbtree=0 / crf=18.5 / qcomp=0.65 / qpmin=0 / qpmax=69 / qpstep=4 / ip_ratio=1.40 / pb_ratio=1.30 / aq=1:0.80
Язык : English
Коэффициенты матрицы : BT.709-5, BT.1361, IEC 61966-2-4 709, SMPTE RP177

Аудио #1
Идентификатор : 2
Формат : AC-3
Формат/Информация : Audio Coding 3
Расширение режима : CM (complete main)
Идентификатор кодека : A_AC3
Продолжительность : 1 ч. 14 м.
Вид битрейта : Постоянный
Битрейт : 192 Кбит/сек
Каналы : 2 канала
Расположение каналов : Front: L R
Частота : 48,0 КГц
Битовая глубина : 16 бит
Метод сжатия : С потерями
Размер потока : 102 Мбайт (3%)
Язык : Russian

Аудио #2
Идентификатор : 3
Формат : AC-3
Формат/Информация : Audio Coding 3
Расширение режима : CM (complete main)
Идентификатор кодека : A_AC3
Продолжительность : 1 ч. 14 м.
Вид битрейта : Постоянный
Битрейт : 448 Кбит/сек
Каналы : 6 каналов
Расположение каналов : Front: L C R, Side: L R, LFE
Частота : 48,0 КГц
Битовая глубина : 16 бит
Метод сжатия : С потерями
Размер потока : 238 Мбайт (7%)
Язык : English



   Похожие торренты   Торрент   Размер 
В этой теме нет новых непрочитанных сообщений. Супермен против Элиты / Superman vs. The Elite (2012) BDRip от HELLYWOOD

4 | 3

1.45 ГБ

В этой теме нет новых непрочитанных сообщений. Супермен против Элиты / Superman vs. The Elite (2012) BDRip-AVC от R.G. AVI | AVC | Лицензия

0 | 2

1.4 ГБ

В этой теме нет новых непрочитанных сообщений. Супермен против Элиты / Superman vs. The Elite (2012) BDRip 720p | Лицензия

0 | 2

2.55 ГБ

В этой теме нет новых непрочитанных сообщений. Супермен против Элиты / Superman vs. The Elite (2012) DVD5

0 | 2

4.29 ГБ

В этой теме нет новых непрочитанных сообщений. Супермен против Элиты / Superman vs. The Elite (2012) BDRip 720p от Leonardo and Scarabey | Лицензия

161 | 30

1.33 ГБ

В этой теме нет новых непрочитанных сообщений. Супермен против Элиты / Superman vs. The Elite (2012) HDRip | КПК от SinemaLand

0 | 7

236.92 МБ

В этой теме нет новых непрочитанных сообщений. Супермен против Элиты / Superman vs. The Elite (2012) HDRip | лицензия

162 | 4

1.37 ГБ




Вы не можете начинать темы
Вы не можете отвечать на сообщения
Вы не можете редактировать свои сообщения
Вы не можете удалять свои сообщения
Вы не можете добавлять вложения

Перейти:  
Для Мосгорсуда, Роскомнадзора и рекламодателей: mosgorsud-torrent[собачка]yandex.ru
 Вход
ppkBB3cker v.2 © 2008-2014 @ PPK
[ Time : 0.047s | 16 Queries | GZIP : Off ]

cron