img image001 image001 image001 image001 image001 image001 image001 image001 image001 image001 image001 image001 image001 image001 image001

Planets Sun Sun Sun
Статистика раздачи
Автор: Снежана | Размер: 1.44 ГБ | Добавлен: 27 июл 2013
Раздают: 1    Качают: 2
Скачать торрент
Скачать торрент
Описание торрента

СообщениеДобавлено: 27 июл 2013 

#77

Информация о фильме
Название: Потрясающие приключения мышкетеров
Оригинальное название: Uimitoarele Aventuri ale Muschetarilor
Год выхода: 1987
Жанр: мультфильм, комедия, приключения
Режиссер: Виктор Антонеску / Victor Antonescu

О фильме:
Мультфильм, рассказывающий о том, как кошки, мышки и собачки начитались романы Дюма и решили поиграть в мушкетёров и гвардейцев кардинала.

Страна: Румыния
Продолжительность: 01:20:42
Перевод: Профессиональный (многоголосый закадровый) / Оригинал (румынский)

Файл
Кодек: Xvid / MP3
Качество: DVDRip
Видео: Xvid, 688x528 (1.30:1), 25 fps, ~2151 kbps, 0.237 bit/pixel
Звук:
Аудио 1: 44,1 kHz, MPEG Layer 3, 2 ch, ~192 kbps - Русский
Аудио 2: 44,1 kHz, MPEG Layer 3, 2 ch, ~192 kbps - Румынский

Общее
Полное имя : Потрясающие приключения мышкетеров.avi
Формат : AVI
Формат/Информация : Audio Video Interleave
Размер файла : 1,44 Гбайт
Продолжительность : 1 ч. 20 м.
Общий поток : 2549 Кбит/сек
Программа кодирования : VirtualDubMod 1.5.10.2 (build 2540/release)
Библиотека кодирования : VirtualDubMod build 2540/release

Видео
Идентификатор : 0
Формат : MPEG-4 Visual
Профиль формата : Advanced Simple@L5
Параметр BVOP формата : 2
Параметр QPel формата : Нет
Параметр GMC формата : Без точки перехода
Параметр матрицы формата : Default (H.263)
Режим смешивания : Сжатый битовый поток
Идентификатор кодека : XVID
Идентификатор кодека/Подсказка : XviD
Продолжительность : 1 ч. 20 м.
Битрейт : 2151 Кбит/сек
Ширина : 688 пикселей
Высота : 528 пикселей
Соотношение сторон : 5:4
Соотношение сторон в оригинале : 4:3
Частота кадров : 25,000 кадров/сек
Цветовое пространство : YUV
Субдискретизация насыщенности : 4:2:0
Битовая глубина : 8 бит
Тип развёртки : Прогрессивная
Метод сжатия : С потерями
Бит/(Пиксели*Кадры) : 0.237
Размер потока : 1,21 Гбайт (84%)
Библиотека кодирования : XviD 1.2.1 (UTC 2008-12-04)

Аудио #1
Идентификатор : 1
Формат : MPEG Audio
Версия формата : Version 1
Профиль формата : Layer 3
Режим : Joint stereo
Идентификатор кодека : 55
Идентификатор кодека/Подсказка : MP3
Продолжительность : 1 ч. 20 м.
Вид битрейта : Постоянный
Битрейт : 192 Кбит/сек
Каналы : 2 канала
Частота : 44,1 КГц
Метод сжатия : С потерями
Размер потока : 111 Мбайт (8%)
Выравнивание : Разделение по промежуткам
Продолжительность промежутка : 40 мс. (1,00 видеокадр)
Время предзагрузки промежутка : 500 мс.

Аудио #2
Идентификатор : 2
Формат : MPEG Audio
Версия формата : Version 1
Профиль формата : Layer 3
Идентификатор кодека : 55
Идентификатор кодека/Подсказка : MP3
Продолжительность : 1 ч. 20 м.
Вид битрейта : Постоянный
Битрейт : 192 Кбит/сек
Каналы : 2 канала
Частота : 44,1 КГц
Метод сжатия : С потерями
Размер потока : 111 Мбайт (8%)
Выравнивание : Разделение по промежуткам
Продолжительность промежутка : 40 мс. (1,00 видеокадр)
Время предзагрузки промежутка : 500 мс.
Библиотека кодирования : LAME3.98r
Настройки программы : -m s -V 4 -q 2 -lowpass 18.6 -b 192




   Похожие торренты   Торрент   Размер 
В этой теме нет новых непрочитанных сообщений. Приключения пингвинёнка Лоло (1986-1987) DVDRip

241 | 11

741.18 МБ

В этой теме нет новых непрочитанных сообщений. Приключения пингвинёнка Лоло (1986-1987) DVDRip

216 | 12

1.4 ГБ

В этой теме нет новых непрочитанных сообщений. Необыкновенные приключения Карика и Вали (1987) DVDRip

107 | 5

1.46 ГБ

В этой теме нет новых непрочитанных сообщений. Необыкновенные приключения Карика и Вали (1987) DVDRip

6 | 4

2.05 ГБ

В этой теме нет новых непрочитанных сообщений. Приключения кота Леопольда [01-11 из 11] (1975-1987) DVDRip от MediaClub | КПК

406 | 25

450.37 МБ

В этой теме нет новых непрочитанных сообщений. Необыкновенные приключения Карика и Вали (1987) DVDRip-AVC от Youtracker

53 | 7

1.46 ГБ

В этой теме нет новых непрочитанных сообщений. Приключения пингвинёнка Лоло (1986-1987) DVDRip - KINOREAKTOR

268 | 34

1.08 ГБ




Вы не можете начинать темы
Вы не можете отвечать на сообщения
Вы не можете редактировать свои сообщения
Вы не можете удалять свои сообщения
Вы не можете добавлять вложения

Перейти:  
Для Мосгорсуда, Роскомнадзора и рекламодателей: mosgorsud-torrent[собачка]yandex.ru
 Вход
ppkBB3cker v.2 © 2008-2014 @ PPK
[ Time : 0.063s | 14 Queries | GZIP : Off ]

Торрент трекер RUTOR.IN, Не можете зайти на rutor.org? Какой новый адрес рутор? Какое зеркало рутор? Не работает rutor.org и зеркала? Тогда наш торрент специально для вас. Rutor.in неофициальное зеркало rutor. В случае если у Вас заблокирован rutor или вдруг Вы не можете на него зайти, то Вы без труда сможете скачать бесплатно и без рекламы последние новинки кино, игр, сериалов и прочего у нас, на Rutor.in. Не нужно использовать прокси, чтобы зайти на рутор, достаточно воспользоваться нашим ресурсом. Все новые фильмы, игры, сериалы, книги и музыка за 2013 и 2014 годы через торрент бесплатно. Скачивайте фильмы в хорошем качестве, игры для пк, xbox, playstation без регистрации. У нас вы найдете новые Зарубежные сериалы и Русские сериалы 2013, 2014, 2015 годов. Оставайтесь с нами, качайте любимые фильмы, игры, сериалы, книги и музыку.