img image001 image001 image001 image001 image001 image001 image001 image001 image001 image001 image001 image001 image001 image001 image001

Planets Sun Sun Sun
Статистика раздачи
Автор: Снежана | Размер: 2.9 ГБ | Добавлен: 27 июл 2013
Раздают: 515    Качают: 17
Скачать торрент
Скачать торрент
Описание торрента

СообщениеДобавлено: 27 июл 2013 

Как приручить дракона / How to Train Your Dragon (2010) BDRip 720p
от DHT-Movies

#77

Название: Как приручить дракона
Оригинальное название: How to Train Your Dragon
Год выхода: 2010
Жанр: мультфильм, фэнтези, комедия, приключения, семейный
Режиссер: Дин ДеБлуа, Крис Сандерс



В ролях:

Джей Барушель, Джерард Батлер, Крэйг Фергюсон, Америка Феррера, Джона Хилл, Кристофер Минц-Плассе, ТиДжей Миллер, Кристен Уиг, Робин Аткин Даунс, Филип МакГрэйд

Описание:

Вы узнаете историю подростка Иккинга, которому не слишком близки традиции его героического племени, много лет ведущего войну с драконами. Мир Иккинга переворачивается с ног на голову, когда он неожиданно встречает дракона Беззубика, который поможет ему и другим викингам увидеть привычный мир с совершенно другой стороны…


Страна: США
Продолжительность: 1:37:51
Перевод: Дубляж (Профессиональный[Лицензия]) + Оригинал (Английский)
Субтитры: Русские/Английские UTF-8 (full)

Релиз группа: | by AVT83

#77
Качество: BDRip 720p | How To Train Your Dragon 2010 BluRay 1080p AVC TrueHD5.1-CHDBits
Формат: MKV
Видео кодек: H.264
Видео: 1280x544/2.35:1/23.976 fps/3347 Kbps/0.200 Bits/(Pixel*Frame)
Аудио (Русский): 48 kHz, AC3 Dolby Digital, 3/2 (L,C,R,l,r) + LFE ch, ~ 448 kbps avg | ( Дубляж)
Аудио (Английский): 48 kHz, AC3 Dolby Digital, 3/2 (L,C,R,l,r) + LFE ch, ~ 448 kbps avg | (Оригинал)


avs [info]: 1280x544p 1:1 @ 2500000/104271 fps (cfr)
x264 [info]: using SAR=1/1
x264 [info]: using cpu capabilities: MMX2 SSE2Fast SSSE3 FastShuffle SSE4.2
x264 [info]: profile High, level 4.1
x264 [info]: frame I:1216 Avg QP:13.81 size:138640
x264 [info]: frame P:38721 Avg QP:17.96 size: 32455
x264 [info]: frame B:100827 Avg QP:21.39 size: 10223
x264 [info]: consecutive B-frames: 4.8% 5.3% 20.8% 26.5% 16.3% 17.6% 2.6% 5.3% 0.5% 0.2%
x264 [info]: mb I I16..4: 11.9% 60.7% 27.4%
x264 [info]: mb P I16..4: 2.8% 18.2% 2.6% P16..4: 29.7% 28.8% 10.8% 0.0% 0.0% skip: 7.3%
x264 [info]: mb B I16..4: 0.4% 2.9% 0.4% B16..8: 31.1% 16.7% 2.8% direct: 4.0% skip:41.6% L0:41.0% L1:44.6% BI:14.4%
x264 [info]: 8x8 transform intra:76.0% inter:55.4%
x264 [info]: direct mvs spatial:96.2% temporal:3.8%
x264 [info]: coded y,uvDC,uvAC intra: 76.8% 69.9% 43.0% inter: 19.7% 15.0% 7.5%
x264 [info]: i16 v,h,dc,p: 20% 11% 9% 60%
x264 [info]: i8 v,h,dc,ddl,ddr,vr,hd,vl,hu: 7% 9% 8% 9% 13% 11% 14% 12% 17%
x264 [info]: i4 v,h,dc,ddl,ddr,vr,hd,vl,hu: 8% 8% 7% 9% 16% 13% 15% 10% 14%
x264 [info]: i8c dc,h,v,p: 37% 30% 16% 16%
x264 [info]: Weighted P-Frames: Y:4.3% UV:2.8%
x264 [info]: ref P L0: 56.8% 8.9% 13.3% 5.8% 3.5% 3.1% 2.2% 1.5% 1.2% 1.2% 1.0% 1.1% 0.3% 0.0%
x264 [info]: ref B L0: 78.2% 9.8% 5.6% 2.0% 1.3% 0.9% 0.8% 0.5% 0.4% 0.3% 0.2%
x264 [info]: ref B L1: 91.7% 8.3%
x264 [info]: kb/s:3346.60

x264 [total]: encoded 140764 frames, 4.03 fps, 3346.60 kb/s
--------------------------------------------------------------------------------
Format : Matroska
Format version : Version 2
File size : 2.90 GiB
Duration : 1h 37mn
Overall bit rate : 4 245 Kbps
Encoded date : UTC 2012-06-25 16:28:47
Writing application : mkvmerge v4.0.0 ('The Stars were mine') built on Jun 6 2010 16:18:42
Writing library : libebml v1.0.0 + libmatroska v1.0.0

Video
ID : 1
Format : AVC
Format/Info : Advanced Video Codec
Format profile : High@L4.1
Format settings, CABAC : Yes
Format settings, ReFrames : 12 frames
Codec ID : V_MPEG4/ISO/AVC
Duration : 1h 37mn
Bit rate : 3 347 Kbps
Width : 1 280 pixels
Height : 544 pixels
Display aspect ratio : 2.35:1
Frame rate : 23.976 fps
Color space : YUV
Chroma subsampling : 4:2:0
Bit depth : 8 bits
Scan type : Progressive
Bits/(Pixel*Frame) : 0.200
Stream size : 2.23 GiB (77%)
Writing library : x264 core 119 r2106 07efeb4
Encoding settings : cabac=1 / ref=12 / deblock=1:-1:-1 / analyse=0x3:0x113 / me=umh / subme=11 / psy=1 / psy_rd=0.80:0.10 / mixed_ref=1 / me_range=32 / chroma_me=1 / trellis=2 / 8x8dct=1 / cqm=0 / deadzone=21,11 / fast_pskip=0 / chroma_qp_offset=-3 / threads=6 / sliced_threads=0 / nr=0 / decimate=0 / interlaced=0 / bluray_compat=0 / constrained_intra=0 / bframes=9 / b_pyramid=2 / b_adapt=2 / b_bias=0 / direct=3 / weightb=1 / open_gop=0 / weightp=2 / keyint=240 / keyint_min=23 / scenecut=40 / intra_refresh=0 / rc_lookahead=45 / rc=2pass / mbtree=1 / bitrate=3347 / ratetol=1.0 / qcomp=0.70 / qpmin=0 / qpmax=69 / qpstep=4 / cplxblur=20.0 / qblur=0.5 / ip_ratio=1.40 / aq=1:1.00
Language : English
Default : No
Forced : No

Audio #1
ID : 2
Format : AC-3
Format/Info : Audio Coding 3
Mode extension : CM (complete main)
Format settings, Endianness : Big
Codec ID : A_AC3
Duration : 1h 37mn
Bit rate mode : Constant
Bit rate : 448 Kbps
Channel(s) : 6 channels
Channel positions : Front: L C R, Side: L R, LFE
Sampling rate : 48.0 KHz
Bit depth : 16 bits
Compression mode : Lossy
Stream size : 314 MiB (11%)
Title : Дубляж
Language : Russian
Default : Yes
Forced : No

Audio #2
ID : 3
Format : AC-3
Format/Info : Audio Coding 3
Mode extension : CM (complete main)
Format settings, Endianness : Big
Codec ID : A_AC3
Duration : 1h 37mn
Bit rate mode : Constant
Bit rate : 448 Kbps
Channel(s) : 6 channels
Channel positions : Front: L C R, Side: L R, LFE
Sampling rate : 48.0 KHz
Bit depth : 16 bits
Compression mode : Lossy
Stream size : 314 MiB (11%)
Title : Оригинал
Language : English
Default : No
Forced : No

Text #1
ID : 4
Format : UTF-8
Codec ID : S_TEXT/UTF8
Codec ID/Info : UTF-8 Plain Text
Title : voronine
Language : Russian
Default : Yes
Forced : No

Text #2
ID : 5
Format : UTF-8
Codec ID : S_TEXT/UTF8
Codec ID/Info : UTF-8 Plain Text
Title : full
Language : English
Default : No
Forced : No

Фильм снят по мотивам одноименной книги Крессиды Коуэлл.
В книге Крессиды Коуэлл не было девчонки-воительницы Астрид, но режиссёры и сценаристы решили, что без яркого женского персонажа никак не обойтись. Также один из близнецов Задиры и Забияки в мультфильме стал женского пола.






   Похожие торренты   Торрент   Размер 
В этой теме нет новых непрочитанных сообщений. Как приручить дракона / How to Train Your Dragon (2010) BDRip 720p | лицензия

163 | 6

5.12 ГБ

В этой теме нет новых непрочитанных сообщений. Как приручить дракона / How to Train Your Dragon (2010) BDRip 720p от NNNB | 60 fps

687 | 42

4.21 ГБ

В этой теме нет новых непрочитанных сообщений. Как приручить дракона 3Д / How to Train Your Dragon 3D (2010) BDrip 720p | Анаглиф

24 | 6

7.29 ГБ

В этой теме нет новых непрочитанных сообщений. Как приручить дракона / How to Train Your Dragon (2010) BDRip 720p | 3D-video (Анаглиф)

33 | 3

2.75 ГБ

В этой теме нет новых непрочитанных сообщений. Как приручить дракона / How to Train Your Dragon (2010) BDRip 720p от NOLIMITS-TEAM | 3D-Video

33 | 3

2.18 ГБ

В этой теме нет новых непрочитанных сообщений. Как приручить дракона / How to Train Your Dragon (2010) BDRip 720p от Leonardo and Scarabey | Лицензия

1044 | 73

2.52 ГБ

В этой теме нет новых непрочитанных сообщений. Как приручить дракона: Дилогия / How to Train Your Dragon: Dilogy (2010-2014) BDRip 720p от HELLYWOOD | D, P, A

37 | 11

11.33 ГБ




Вы не можете начинать темы
Вы не можете отвечать на сообщения
Вы не можете редактировать свои сообщения
Вы не можете удалять свои сообщения
Вы не можете добавлять вложения

Перейти:  
Для Мосгорсуда, Роскомнадзора и рекламодателей: mosgorsud-torrent[собачка]yandex.ru
 Вход
ppkBB3cker v.2 © 2008-2014 @ PPK
[ Time : 0.042s | 15 Queries | GZIP : Off ]

Торрент трекер RUTOR.IN, Не можете зайти на rutor.org? Какой новый адрес рутор? Какое зеркало рутор? Не работает rutor.org и зеркала? Тогда наш торрент специально для вас. Rutor.in неофициальное зеркало rutor. В случае если у Вас заблокирован rutor или вдруг Вы не можете на него зайти, то Вы без труда сможете скачать бесплатно и без рекламы последние новинки кино, игр, сериалов и прочего у нас, на Rutor.in. Не нужно использовать прокси, чтобы зайти на рутор, достаточно воспользоваться нашим ресурсом. Все новые фильмы, игры, сериалы, книги и музыка за 2013 и 2014 годы через торрент бесплатно. Скачивайте фильмы в хорошем качестве, игры для пк, xbox, playstation без регистрации. У нас вы найдете новые Зарубежные сериалы и Русские сериалы 2013, 2014, 2015 годов. Оставайтесь с нами, качайте любимые фильмы, игры, сериалы, книги и музыку.