img image001 image001 image001 image001 image001 image001 image001 image001 image001 image001 image001 image001 image001 image001 image001

Planets Sun Sun Sun
Статистика раздачи
Автор: Снежана | Размер: 4.36 ГБ | Добавлен: 27 июл 2013
Раздают: 8    Качают: 5
Скачать торрент
Скачать торрент
Описание торрента

СообщениеДобавлено: 27 июл 2013 

#77


Информация о фильме
Название: Отважная Лифи
Оригинальное название: Madangeul Naon Amtak
Год выхода: 2011
Жанр: мультфильм, драма, приключения, семейный
Режиссер: Seong-yun Oh



В ролях: So-ri Moon, Сын-хо Ю (Seung-ho Yu), Мин-Сик Чои (Min-sik Choi), Cheol-min Park, Юн Ким (Sang-hyun Kim), Jeon Sook-Kyeong
Дублёры: Светлана Кузнецова (Leafie - Ipssak), Андрей Лёвин (Greenie - Chorok), Александр Ноткин (Wanderer), Максим Сергеев (Mayor - Dalsu), Наталья Данилова (One-Eye), Ксения Бржезовская (Jjaek)

О фильме:
Неугомонная курочка Лифи оставляет уютную сытую жизнь на птицефабрике и отправляется в лес. Волей случая она спасает маленького утенка от лисы и берет его под свое крыло. Веселые и опасные приключения ждут эту странную парочку.


Страна: Корея Южная
Студия: MK Pictures
Продолжительность: 01:32:18
Перевод: Профессиональный (дублированный)

Файл
Кодек: H.264
Качество: BDRip 1080p
Видео: 1920x1040 (16:9), 24.000 fps, AVC, 6 124 Kbps
Звук: AC3, 640 Kbps, 48.0 KHz, 6 ch
Субтитры: Russian (srt)


Общее
Уникальный идентификатор : 210961099144779390293080669508701550801 (0x9EB5A13A344E9E6AB93766298A9078D1)
Полное имя : E:торрентOtvazhnaja.Lifi.2011.BDRip1080p-F.H.D.mkv
Формат : Matroska
Версия формата : Version 2
Размер файла : 4,36 Гбайт
Продолжительность : 1 ч. 32 м.
Общий поток : 6765 Кбит/сек
Дата кодирования : UTC 2012-06-26 19:24:07
Программа кодирования : mkvmerge v5.6.0 ('Kenya Kane') built on May 27 2012 16:44:04
Библиотека кодирования : libebml v1.2.3 + libmatroska v1.3.0

Видео
Идентификатор : 1
Формат : AVC
Формат/Информация : Advanced Video Codec
Профиль формата : High@L4.1
Параметр CABAC формата : Да
Параметр ReFrames формата : 4 кадра
Идентификатор кодека : V_MPEG4/ISO/AVC
Продолжительность : 1 ч. 32 м.
Битрейт : 6124 Кбит/сек
Ширина : 1920 пикселей
Высота : 1040 пикселей
Соотношение сторон : 1,85:1
Частота кадров : 24,000 кадра/сек
Цветовое пространство : YUV
Субдискретизация насыщенности : 4:2:0
Битовая глубина : 8 бит
Тип развёртки : Прогрессивная
Бит/(Пиксели*Кадры) : 0.128
Размер потока : 3,86 Гбайт (89%)
Библиотека кодирования : x264 core 125 r2200 999b753
Настройки программы : cabac=1 / ref=4 / deblock=1:1:1 / analyse=0x3:0x113 / me=umh / subme=10 / psy=1 / psy_rd=0.90:0.00 / mixed_ref=1 / me_range=48 / chroma_me=1 / trellis=2 / 8x8dct=1 / cqm=0 / deadzone=21,11 / fast_pskip=0 / chroma_qp_offset=-2 / threads=6 / lookahead_threads=1 / sliced_threads=0 / nr=0 / decimate=1 / interlaced=0 / bluray_compat=0 / constrained_intra=0 / bframes=6 / b_pyramid=2 / b_adapt=2 / b_bias=0 / direct=3 / weightb=1 / open_gop=0 / weightp=2 / keyint=240 / keyint_min=24 / scenecut=40 / intra_refresh=0 / rc=2pass / mbtree=0 / bitrate=6124 / ratetol=1.0 / qcomp=0.70 / qpmin=0 / qpmax=69 / qpstep=4 / cplxblur=20.0 / qblur=0.5 / ip_ratio=1.40 / pb_ratio=1.30 / aq=1:0.60
Язык : English
Default : Да
Forced : Нет
Основные цвета : BT.709-5, BT.1361, IEC 61966-2-4, SMPTE RP177
Характеристики трансфера : BT.709-5, BT.1361
Коэффициенты матрицы : BT.709-5, BT.1361, IEC 61966-2-4 709, SMPTE RP177

Аудио
Идентификатор : 2
Формат : AC-3
Формат/Информация : Audio Coding 3
Расширение режима : CM (complete main)
Параметр Endianness формата : Big
Идентификатор кодека : A_AC3
Продолжительность : 1 ч. 32 м.
Вид битрейта : Постоянный
Битрейт : 640 Кбит/сек
Каналы : 6 каналов
Расположение каналов : Front: L C R, Side: L R, LFE
Частота : 48,0 КГц
Битовая глубина : 16 бит
Метод сжатия : С потерями
Размер потока : 423 Мбайт (9%)
Язык : Russian
Default : Да
Forced : Нет

Текст
Идентификатор : 3
Формат : UTF-8
Идентификатор кодека : S_TEXT/UTF8
Идентификатор кодека/Информация : UTF-8 Plain Text
Язык : Russian
Default : Нет
Forced : Нет

Меню
00:00:00.000 : en:Chapter 01
00:05:52.833 : en:Chapter 02
00:10:54.416 : en:Chapter 03
00:15:57.500 : en:Chapter 04
00:20:32.833 : en:Chapter 05
00:28:21.666 : en:Chapter 06
00:40:14.875 : en:Chapter 07
00:46:15.166 : en:Chapter 08
00:54:17.666 : en:Chapter 09
01:05:17.625 : en:Chapter 10
01:15:07.166 : en:Chapter 11
01:21:29.125 : en:Chapter 12
01:32:17.916 : en:Chapter 13


Релиз от:



   Похожие торренты   Торрент   Размер 
В этой теме нет новых непрочитанных сообщений. Отважная Лифи / Madangeul Naon Amtak (2011) BDRip-AVC от ExKinoRay

1 | 5

1.9 ГБ

В этой теме нет новых непрочитанных сообщений. Отважная Лифи / Madangeul Naon Amtak (2011) BDRip от Generalfilm

1 | 2

1.37 ГБ

В этой теме нет новых непрочитанных сообщений. Отважная Лифи / Madangeul Naon Amtak (2011) BDRip-AVC от potroks | Лицензия

3 | 3

1.46 ГБ

В этой теме нет новых непрочитанных сообщений. Отважная Лифи / Madangeul Naon Amtak (2011) DVD9

2 | 2

4.94 ГБ

В этой теме нет новых непрочитанных сообщений. Отважная Лифи / Madangeul Naon Amtak (2011) HDRip | Лицензия

10 | 1

700.32 МБ

В этой теме нет новых непрочитанных сообщений. Отважная Лифи / Madangeul Naon Amtak (2011) HDRip | Лицензия

32 | 2

1.46 ГБ

В этой теме нет новых непрочитанных сообщений. Отважная / The Brave One (2007) BDRip 1080p

3 | 12

10 ГБ




Вы не можете начинать темы
Вы не можете отвечать на сообщения
Вы не можете редактировать свои сообщения
Вы не можете удалять свои сообщения
Вы не можете добавлять вложения

Перейти:  
Для Мосгорсуда, Роскомнадзора и рекламодателей: mosgorsud-torrent[собачка]yandex.ru
 Вход
ppkBB3cker v.2 © 2008-2014 @ PPK
[ Time : 0.020s | 14 Queries | GZIP : Off ]

Торрент трекер RUTOR.IN, Не можете зайти на rutor.org? Какой новый адрес рутор? Какое зеркало рутор? Не работает rutor.org и зеркала? Тогда наш торрент специально для вас. Rutor.in неофициальное зеркало rutor. В случае если у Вас заблокирован rutor или вдруг Вы не можете на него зайти, то Вы без труда сможете скачать бесплатно и без рекламы последние новинки кино, игр, сериалов и прочего у нас, на Rutor.in. Не нужно использовать прокси, чтобы зайти на рутор, достаточно воспользоваться нашим ресурсом. Все новые фильмы, игры, сериалы, книги и музыка за 2013 и 2014 годы через торрент бесплатно. Скачивайте фильмы в хорошем качестве, игры для пк, xbox, playstation без регистрации. У нас вы найдете новые Зарубежные сериалы и Русские сериалы 2013, 2014, 2015 годов. Оставайтесь с нами, качайте любимые фильмы, игры, сериалы, книги и музыку.